<?xml version="1.0" standalone="no"?>
<!DOCTYPE svg PUBLIC "-//W3C//DTD SVG 1.1//EN" "http://www.w3.org/Graphics/SVG/1.1/DTD/svg11.dtd" >
<svg xmlns="http://www.w3.org/2000/svg" xmlns:xlink="http://www.w3.org/1999/xlink" version="1.1">
<metadata></metadata>
<defs>
<font id="bpg_mikheil_stefaneregular" horiz-adv-x="1095" >
<font-face units-per-em="2048" ascent="1638" descent="-410" />
<missing-glyph horiz-adv-x="643" />
<glyph unicode=" "  horiz-adv-x="643" />
<glyph unicode="&#x09;" horiz-adv-x="643" />
<glyph unicode="&#xa0;" horiz-adv-x="643" />
<glyph unicode="!" horiz-adv-x="659" d="M202 105q0 -45 31 -75t80 -30q56 0 94 32t38 80q0 52 -31 82t-85 30q-56 0 -91.5 -33t-35.5 -86zM239 1477q0 -23 12 -132t12 -186q0 -45 -7.5 -229.5t-7.5 -221.5q0 -141 21.5 -202t70.5 -61q50 0 50 28q0 11 -21 67.5t-21 99.5q0 23 5 39q0 197 33 456q35 255 35 327 q0 81 -70 81q-14 0 -30 -2.5t-36 -8.5t-33 -20t-13 -35z" />
<glyph unicode="&#x22;" horiz-adv-x="724" d="M118 1488q0 -26 3 -40q7 -43 16.5 -130t22 -160t33.5 -154l66 447q6 23 6 39q0 39 -21 62.5t-56 23.5q-70 0 -70 -88zM462 1488q0 -7 1.5 -18.5t1.5 -16.5v-2q4 -25 25.5 -186.5t44.5 -258.5l70 445q4 13 4 39q0 40 -19 63t-53 23q-35 0 -55 -23.5t-20 -64.5z" />
<glyph unicode="#" horiz-adv-x="1216" d="M66 546q0 -18 14 -28t38 -10h158l-153 -499q0 -1 -1 -8t-1 -16q0 -18 24 -18q21 0 39.5 18.5t28.5 47.5q58 197 144 475h338l-154 -499q0 -1 -1 -8t-1 -16q0 -7 7 -12.5t17 -5.5q21 0 45 37.5t49.5 109.5t43.5 130.5t43 148.5t32 115h168q34 0 55.5 12t21.5 32 q0 15 -12.5 24t-33.5 9h-173l103 338h167q33 0 53.5 13t20.5 33q0 32 -46 32h-171l154 496q4 14 4 26q0 18 -24 18q-19 0 -37.5 -19t-28.5 -47h2q-39 -126 -151 -474h-337l153 496v-2q2 9 2 19q0 31 -28 31q-20 0 -36.5 -17.5t-25.5 -46.5l-146 -480h-165q-31 0 -50.5 -11.5 t-19.5 -29.5q0 -16 14.5 -26.5t35.5 -10.5h160l-105 -338h-164q-29 0 -49.5 -11.5t-20.5 -27.5zM377 581l105 346h346l-107 -346h-344z" />
<glyph unicode="$" horiz-adv-x="1245" d="M252 94q0 -46 47.5 -70t136.5 -24q35 0 110 11l46 2q-3 -204 -33 -278q31 -26 68 -26q29 0 40.5 43.5t11.5 153.5q0 69 -15 147q146 76 221 172t75 207q0 73 -75 172t-184 185h2q-271 207 -271 353q0 123 98 196t261 73q100 0 180 -30q35 54 35 89q0 68 -147 68 q-68 0 -173 -26q13 224 31 287q-30 22 -55 22q-55 0 -55 -94q0 -35 1 -78t3 -93t3 -72q-126 -62 -224.5 -180.5t-98.5 -218.5q0 -158 296 -379q152 -121 193.5 -175.5t41.5 -136.5q0 -123 -88 -190.5t-248 -67.5q-130 0 -208 37q-26 -41 -26 -79z" />
<glyph unicode="%" horiz-adv-x="2174" d="M90 1080q0 -185 97 -298.5t258 -113.5q175 0 284.5 131.5t109.5 340.5q0 192 -93.5 294t-269.5 102q-175 0 -280.5 -122.5t-105.5 -333.5zM188 1104q0 180 73 274.5t212 94.5q127 0 198.5 -89t71.5 -251q0 -186 -75.5 -289t-211.5 -103q-127 0 -197.5 95.5t-70.5 267.5z M653 22q0 -55 94 -55q33 0 62 37l241 585q3 5 142.5 254.5t249 451t109.5 217.5q0 55 -78 55q-27 0 -65 -78t-112.5 -249t-145.5 -304q-1 -2 -140.5 -250t-248 -448t-108.5 -216zM1359 410q0 -182 97 -296t258 -114q176 0 286 132.5t110 336.5q0 194 -95 296.5t-271 102.5 q-175 0 -280 -124.5t-105 -333.5zM1455 438q0 176 74 270t213 94q128 0 199 -88t71 -249q0 -186 -76.5 -289.5t-213.5 -103.5q-127 0 -197 96t-70 270z" />
<glyph unicode="&#x26;" horiz-adv-x="1536" d="M88 403q0 -202 132.5 -319t358.5 -117q103 0 255 67t235 148h46q108 -94 197.5 -145.5t144.5 -51.5q33 0 51.5 20.5t18.5 55.5q0 29 -31 51t-76.5 37.5t-120.5 54t-140 90.5q167 288 167 390q0 28 -15.5 40t-50.5 12q-34 0 -53.5 -27.5t-28.5 -72.5t-17 -93.5t-27 -100 t-51 -83.5q-280 242 -414 436.5t-134 357.5q0 136 72.5 214.5t194.5 78.5q135 0 230 -98q57 34 57 79q0 52 -73 85t-183 33q-196 0 -312 -104t-116 -286q0 -104 62 -243q-187 -92 -283 -221.5t-96 -287.5zM213 432q0 122 75.5 225.5t217.5 173.5q202 -310 478 -542l2 -48 q-157 -171 -375 -171q-177 0 -287.5 99t-110.5 263z" />
<glyph unicode="'" horiz-adv-x="393" d="M125 1488q0 -67 40.5 -246.5t40.5 -235.5l61 445q5 38 5 39q0 40 -20 63t-55 23q-72 0 -72 -88z" />
<glyph unicode="(" horiz-adv-x="770" d="M232 616q0 -264 75 -513q74 -225 208 -421q61 -98 99 -98q11 0 11 13q0 6 -17.5 38t-44 77.5t-35.5 61.5q-182 349 -182 805q0 333 105 576q95 231 274 357q-46 68 -94 68q-52 0 -118 -75.5t-120.5 -185.5t-87.5 -223q-73 -233 -73 -480z" />
<glyph unicode=")" horiz-adv-x="770" d="M92 -357q0 -37 48 -59q53 0 120 78t122.5 191t90.5 230q66 220 66 465q0 543 -302 964q-45 68 -79 68q-11 0 -11 -15q0 -5 23 -48t53.5 -98.5t41.5 -79.5q76 -156 117 -351t41 -401q0 -339 -103 -580q-18 -42 -58.5 -98t-76.5 -99t-64.5 -89.5t-28.5 -77.5z" />
<glyph unicode="*" d="M142 1289q0 -38 58 -74.5t116.5 -54.5t80.5 -18q33 0 33 19q0 18 -36 57q-53 55 -106.5 88t-88.5 33q-25 0 -41 -13.5t-16 -36.5zM228 822q0 -23 14.5 -38t35.5 -15q48 0 115 94.5t67 135.5l-20 20q-30 0 -85 -44q-127 -98 -127 -153zM482 1475q0 -81 21 -148t45 -67 q25 0 41.5 58.5t21.5 162.5l-13 62l-50 33q-29 0 -47.5 -27.5t-18.5 -73.5zM633 997q0 -41 65 -135.5t117 -94.5q23 0 37 13.5t14 34.5q0 39 -53 92q-121 110 -158 110q-8 0 -15 -6.5t-7 -13.5zM668 1159q0 -10 10.5 -16t27.5 -6q64 0 177 62q72 40 72 85q0 23 -16 38 t-41 15q-36 0 -87.5 -32t-104.5 -89q-38 -41 -38 -57z" />
<glyph unicode="+" horiz-adv-x="1474" d="M94 646q0 -20 20.5 -35t49.5 -15h522v-535q0 -26 15 -45.5t35 -19.5q51 0 51 72v528h521q32 0 51 14t19 36q0 23 -19.5 38t-48.5 15h-523v533q0 29 -15 49.5t-36 20.5q-23 0 -36.5 -19.5t-13.5 -53.5v-530h-519q-34 0 -53.5 -13.5t-19.5 -39.5z" />
<glyph unicode="," horiz-adv-x="622" d="M158 112q0 -39 18.5 -59t75.5 -31q24 -4 37.5 -16t17.5 -25.5t0.5 -33.5t-8 -33t-12.5 -32q-26 -68 -85 -134l17 -22q3 2 24.5 20.5t28.5 25t28.5 25.5t31 29t28 29.5t27.5 32.5t22 32t19 34t10.5 33t4.5 35q0 87 -47 140t-124 53q-51 0 -82.5 -28.5t-31.5 -74.5z" />
<glyph unicode="-" horiz-adv-x="673" d="M85 401q14 -9 33 -9q14 0 40 5.5t37 5.5q29 0 131.5 -10t124.5 -10q62 0 91.5 27t29.5 85v9l-2 4q-36 -6 -75 -6q-35 0 -144.5 8.5t-124.5 8.5q-60 0 -92 -31t-49 -87z" />
<glyph unicode="." horiz-adv-x="622" d="M182 92q0 -48 31 -76.5t81 -28.5q54 0 92.5 33t38.5 79q0 52 -30.5 81.5t-83.5 29.5q-58 0 -93.5 -32.5t-35.5 -85.5z" />
<glyph unicode="/" horiz-adv-x="808" d="M-44 -204q0 -9 29 -9q40 0 56 13.5t44 78.5l700 1589q28 62 28 70q0 7 -26 7q-62 0 -101 -86l-2 -6v2l-704 -1591q-24 -53 -24 -68z" />
<glyph unicode="0" horiz-adv-x="1288" d="M85 712q0 -218 65 -386t187.5 -262.5t284.5 -94.5q170 0 302.5 109t204.5 302.5t72 439.5q0 343 -137 530.5t-393 187.5q-273 0 -429.5 -222t-156.5 -604zM228 747q0 333 110 512t313 179q200 0 305 -162t105 -470q0 -347 -112 -539t-316 -192q-194 0 -299.5 175.5 t-105.5 496.5z" />
<glyph unicode="1" horiz-adv-x="870" d="M153 1365q0 -35 25 -35q4 -1 18 4.5t46 19t63 24.5l76 31q13 -134 13 -313q0 -50 -13 -509t-13 -475q0 -29 1.5 -48t8 -32.5t12 -20t22.5 -9.5t28 -3.5t41 -0.5h16q34 0 62 13q-11 70 -27 191q-13 120 -13 418q0 362 27 743q6 85 6 101q0 47 -7.5 63t-27.5 16 q-7 0 -63.5 -16.5t-140.5 -41t-142 -37.5q-18 -54 -18 -83z" />
<glyph unicode="2" horiz-adv-x="1245" d="M85 77q0 -11 4.5 -21.5t13.5 -25t13 -23.5q62 4 90 4q22 0 70.5 -1t78.5 -1q38 0 246 -5.5t269 -5.5q115 0 153 24q31 18 31 74q0 46 -13 90q-155 -65 -544 -65q-156 0 -309 13q508 344 686 556q184 223 184 423q0 193 -136 314.5t-354 121.5q-169 0 -287.5 -72.5 t-118.5 -174.5q0 -54 48 -92q62 109 147.5 160.5t203.5 51.5q153 0 253 -90.5t100 -235.5q0 -158 -125 -327q-122 -162 -384 -359q-13 -10 -100 -75q-220 -160 -220 -258z" />
<glyph unicode="3" horiz-adv-x="1245" d="M158 66q0 -99 219 -99q184 0 335.5 62t238 170t86.5 239q0 130 -97.5 213.5t-299.5 124.5v59q178 40 275 134t97 225q0 153 -125 251t-328 98q-143 0 -238 -45.5t-95 -112.5q0 -42 39 -75q113 106 281 106q145 0 233.5 -69.5t88.5 -185.5q0 -77 -32 -127.5t-113 -95.5 t-237 -97q-29 -9 -60.5 -17.5t-48 -12t-31.5 -9.5t-20.5 -13.5t-5.5 -19.5q0 -31 105 -37q249 -29 357 -95t108 -207q0 -144 -127 -240t-320 -96q-145 0 -244 66q-41 -4 -41 -94z" />
<glyph unicode="4" horiz-adv-x="1245" d="M53 528q0 -52 41 -103q63 15 261 15q63 0 205 -2t205 -2l33 -33q-3 -272 -51 -401q77 -35 121 -35q32 0 44.5 22.5t12.5 80.5q0 9 -1.5 74t-3 154t-2.5 134q34 0 79 -2.5t53 -2.5q75 0 107.5 19.5t32.5 64.5q0 30 -11 57q-95 -31 -263 -31v83q0 384 26 754q7 46 7 92 q0 43 -6.5 59t-22.5 16q-38 0 -109.5 -70.5t-223.5 -245.5q-7 -9 -247 -289q-287 -326 -287 -408zM195 594q0 36 202 274q176 203 412 504v-270q0 -219 -7 -537l-31 -33h-50q-153 0 -249 -3t-128 -3q-85 0 -117 15t-32 53z" />
<glyph unicode="5" horiz-adv-x="1245" d="M123 83q0 -46 62.5 -72t173.5 -26q126 0 248.5 40.5t222.5 113.5t162 186t62 247q0 185 -124.5 291t-335.5 106q-92 0 -261 -33q68 328 92 458q252 -9 342 -9q187 0 237 24q37 17 37 68q0 33 -18 66q-142 -42 -423 -42q-138 0 -254 7q-22 -102 -57.5 -272.5t-58 -277.5 t-22.5 -103q0 -31 29 -31q2 0 58 11t130.5 22t120.5 11q172 0 270 -85.5t98 -234.5q0 -185 -145 -310.5t-364 -125.5q-142 0 -241 72q-41 -64 -41 -101z" />
<glyph unicode="6" horiz-adv-x="1245" d="M112 532q0 -268 125.5 -415.5t362.5 -147.5q233 0 382 143.5t149 367.5q0 200 -115.5 313.5t-314.5 113.5q-234 0 -374 -153l-57 28q58 299 223 465.5t430 194.5q4 40 4 50q0 31 -17 45t-53 14q-57 0 -147.5 -37t-170.5 -92q-200 -146 -313 -379q-114 -231 -114 -511z M254 486q0 84 9 134l7 20q151 173 381 173q168 0 257 -87t89 -250q0 -185 -105.5 -293t-280.5 -108q-171 0 -264 107t-93 304z" />
<glyph unicode="7" horiz-adv-x="1245" d="M156 1448q0 -76 41 -96q163 35 436 35q199 0 360 -15q-431 -738 -550 -989q-114 -234 -114 -337q0 -77 81 -77q22 0 96 22q0 1 -2 10t-2 10q0 209 234 677q84 168 244 438q155 257 155 327q0 38 -22 79q-90 -29 -272 -29q-385 0 -561 9h-4q-69 0 -94.5 -14t-25.5 -50z " />
<glyph unicode="8" horiz-adv-x="1245" d="M142 348q0 -174 125 -279.5t327 -105.5q224 0 364 126.5t140 320.5q0 123 -73.5 202.5t-229.5 125.5l-2 64q307 121 307 381q0 168 -119.5 267t-318.5 99q-221 0 -358 -112.5t-137 -294.5q0 -244 333 -393q-358 -147 -358 -401zM274 366q0 121 67.5 208t210.5 151l24 3 q219 -60 308 -137t89 -197q0 -141 -101.5 -234.5t-257.5 -93.5q-153 0 -246.5 82.5t-93.5 217.5zM296 1140q0 137 96.5 222.5t253.5 85.5q154 0 242.5 -78.5t88.5 -212.5q0 -123 -82.5 -214t-243.5 -143l-20 -2q-335 89 -335 342z" />
<glyph unicode="9" horiz-adv-x="1245" d="M112 1045q0 -209 114 -325.5t317 -116.5q271 0 382 125l57 48q-31 -153 -97 -298t-151 -230q-181 -184 -407 -184q-47 -19 -47 -40q0 -66 84 -66q72 0 175.5 38.5t179.5 95.5h-2q196 139 302 366q107 227 107 508q0 277 -127 428t-361 151q-239 0 -382.5 -136 t-143.5 -364zM245 1054q0 182 103 287t274 105q182 0 275 -113t93 -334q0 -76 -4 -98l-9 -16q-168 -184 -383 -184q-169 0 -259 91t-90 262z" />
<glyph unicode=":" horiz-adv-x="673" d="M199 92q0 -48 31 -76.5t81 -28.5q56 0 94 33t38 79q0 52 -30.5 81.5t-83.5 29.5q-58 0 -94 -33t-36 -85zM210 677q0 -46 31.5 -75.5t80.5 -29.5q57 0 94.5 32t37.5 80q0 51 -30.5 80t-83.5 29q-58 0 -94 -32t-36 -84z" />
<glyph unicode=";" horiz-adv-x="673" d="M182 112q0 -37 20.5 -58.5t73.5 -29.5q60 -13 78.5 -35t18.5 -70q0 -8 -12.5 -63.5t-14.5 -92.5q108 108 123 259q0 84 -48.5 137.5t-122.5 53.5q-51 0 -83.5 -28.5t-32.5 -72.5zM204 677q0 -46 31.5 -75.5t80.5 -29.5q56 0 93.5 32t37.5 80q0 51 -30.5 80t-83.5 29 q-58 0 -93.5 -32t-35.5 -84z" />
<glyph unicode="&#x3c;" horiz-adv-x="1824" d="M256 646q0 -19 26 -41t69 -40l1135 -469q20 -6 44 -6q18 0 30.5 12.5t12.5 33.5q0 16 -13.5 34t-34.5 29q-170 69 -550 223.5t-550 223.5l1100 450q21 8 34.5 25.5t13.5 35.5q0 48 -50 48q-13 0 -37 -11l-1133 -462q-45 -18 -71 -41.5t-26 -44.5z" />
<glyph unicode="=" horiz-adv-x="1824" d="M270 188q0 -21 19 -35.5t48 -14.5h1142q34 0 53 13.5t19 36.5q0 22 -19 37.5t-48 15.5h-1144q-33 0 -51.5 -14t-18.5 -39zM270 618q0 -22 18.5 -37.5t46.5 -15.5h1142q34 0 54 14t20 37q0 20 -20.5 35t-49.5 15l-1144 2q-31 0 -49 -13.5t-18 -36.5z" />
<glyph unicode="&#x3e;" horiz-adv-x="1824" d="M272 136q0 -20 13.5 -33t34.5 -13q14 0 42 9h-3q275 112 1136 466q42 16 68 38.5t26 42.5q0 48 -97 86l-1130 464q-23 9 -42 9q-20 0 -34 -14.5t-14 -33.5q0 -18 13.5 -35.5t34.5 -25.5q517 -210 1100 -450q-480 -194 -1098 -447l2 3q-52 -33 -52 -66z" />
<glyph unicode="?" horiz-adv-x="866" d="M156 1431q0 -19 15 -61q89 50 177 50q111 0 180 -66q70 -64 70 -168q0 -71 -25 -132.5t-106 -170.5h2q-1 -2 -4.5 -5.5t-4.5 -5.5q-80 -102 -133 -193.5t-53 -132.5q0 -33 9.5 -67.5t31 -53.5t47.5 -2l32 24q0 6 -5.5 22t-5.5 24q0 61 31 132q11 21 29 48.5t48 70 t52 76.5q90 120 133 207.5t43 160.5q0 140 -115.5 246.5t-272.5 106.5q-80 0 -127.5 -29.5t-47.5 -80.5zM241 105q0 -45 31.5 -75t80.5 -30q54 0 91.5 32t37.5 80q0 52 -31 82t-85 30q-56 0 -90.5 -33t-34.5 -86z" />
<glyph unicode="@" horiz-adv-x="2191" d="M237 381q0 -232 102.5 -410.5t286.5 -275t421 -96.5q248 0 463.5 98.5t385.5 287.5q81 87 81 131q0 22 -29 22q-21 0 -50 -35q-197 -216 -397 -320q-193 -99 -418 -99q-337 0 -537 188t-200 505q0 200 68.5 373.5t188 295t287 191t359.5 69.5q277 0 435.5 -143.5 t158.5 -393.5q0 -353 -248 -506h3q-32 -22 -75.5 -36t-69.5 -14q-30 0 -40.5 11t-10.5 43q0 113 36 301q53 251 81 341q-212 55 -305 55q-109 0 -209.5 -36.5t-156.5 -96.5v2q-87 -94 -128 -184.5t-41 -192.5q0 -152 77 -246q78 -87 204 -87q152 0 339 217v-101v-26 q0 -44 24 -65t75 -21q93 0 191 45.5t175 125.5q85 93 131.5 217t46.5 263q0 284 -180 447.5t-484 163.5q-225 0 -419 -76t-330.5 -209.5t-214 -320.5t-77.5 -402zM780 458q0 185 119 312.5t289 127.5q88 0 184 -39l22 -37q-2 -12 -77 -414l2 2q-1 -5 -3 -18t-3 -17 q-155 -187 -285 -187q-122 0 -185 68.5t-63 201.5z" />
<glyph unicode="A" horiz-adv-x="1458" d="M61 81q0 -83 114 -83q23 0 30 33t12.5 82.5t21.5 72.5q32 103 136 329h646q1 -3 9.5 -21t9.5 -29v2q85 -233 149.5 -351t116.5 -118q31 0 53 10t54 42q-122 146 -418 886q-11 27 -30 77q-137 345 -181 429q-57 99 -100 103q-45 0 -99 -61q31 -33 77 -99 q-201 -454 -388 -826q-213 -427 -213 -478zM419 600q9 20 41 97.5t46 111.5l121 282l85 195q142 -328 276 -686h-569z" />
<glyph unicode="B" horiz-adv-x="1288" d="M180 1538q24 -85 37 -201q15 -143 15 -465q0 -108 -5.5 -283t-11 -306.5t-5.5 -133.5q0 -51 8.5 -79.5t36 -46.5t71.5 -24t123 -6q178 0 326 59t233 162.5t85 228.5q0 224 -287 300l-4 66q287 113 287 344q0 181 -159 288.5t-424 107.5q-74 0 -172 -5.5t-154 -5.5z M353 815q1 40 4.5 299t4.5 297l30 31q57 9 130 9q204 0 315.5 -84t111.5 -238q0 -156 -116.5 -241.5t-330.5 -85.5q-57 0 -149 13zM354 535v188q107 7 139 7q225 0 341.5 -78t116.5 -227q0 -142 -113.5 -232t-300.5 -90q-83 0 -178 15q0 34 -2.5 215t-2.5 202z" />
<glyph unicode="C" horiz-adv-x="1437" d="M79 758q0 -128 38.5 -244.5t113.5 -213t179.5 -168t243.5 -111t299 -39.5t250 29.5t90 82.5q0 39 -42 94q-157 -76 -320 -76q-198 0 -355.5 85t-246 238t-88.5 345q0 299 206 480q204 182 537 182q28 0 75.5 -9t83.5 -15q33 -6 66 -6h6q36 0 56 22t20 65q0 42 -53 59.5 t-182 17.5q-173 0 -327.5 -43.5t-271.5 -121t-203 -179.5t-130.5 -224t-44.5 -250z" />
<glyph unicode="D" horiz-adv-x="1597" d="M202 131q0 -88 65.5 -114t267.5 -26q221 0 406 66.5t308 180t191 265t68 321.5q0 218 -112.5 383t-321.5 254.5t-487 89.5h-11q-10 0 -38 1q-28 2 -56 3h-17q-22 1 -48 -1q-37 -2 -67.5 -9t-61 -23t-50.5 -39q-18 -23 -28 -61q-6 -23 -6 -51q0 -17 2 -36q18 -145 18 -432 q0 -60 -1 -136t-3 -148.5t-4.5 -146t-5 -135t-4.5 -109t-3 -73.5t-1 -24zM355 640q0 321 15 752l29 32q96 16 226 16q156 0 289 -49t227 -136t147 -211t53 -268q0 -194 -92.5 -345.5t-258 -235t-376.5 -83.5q-112 0 -246 35q-13 212 -13 493z" />
<glyph unicode="E" horiz-adv-x="1122" d="M202 1530q35 -176 35 -719q0 -333 -18 -651q0 -38 -2 -77l-2 -39q0 -27 8.5 -37.5t28.5 -10.5q44 0 133.5 3t133.5 3q28 0 159 -3t161 -3q100 0 132 19v-2q24 18 24 57q0 37 -29 88q-128 -48 -339 -48q-14 0 -107.5 2t-168.5 2q13 326 13 646q82 5 175 5q6 0 71.5 -1 t75.5 -1h26q40 0 82 -1.5t45 -1.5q63 0 89.5 15t26.5 51q0 24 -13 59q-91 -19 -368 -19h-109q-11 0 -49.5 1t-49.5 1l11 559q79 0 178 2t109 2q39 0 89.5 -6.5t87 -13.5t75 -9.5t63 3.5t40 27t15.5 60q0 33 -26 46t-96 14q-4 0 -13 -1t-25.5 -2t-32.5 -2q-281 -17 -539 -17 h-100z" />
<glyph unicode="F" horiz-adv-x="1148" d="M208 1538q29 -136 29 -350q0 -60 -12 -559t-12 -513q0 -68 15 -92t57 -24q61 0 140 39q-30 79 -46 211q-15 146 -15 497q25 0 91 1t73 1q33 0 106.5 -1t114.5 -1h71q86 0 118.5 20t32.5 72q0 18 -9.5 27t-27 9.5t-34.5 -2t-41.5 -7t-38.5 -5.5q-90 -9 -336 -9 q-65 0 -118 9q4 94 4 377l3 191q161 6 291 6q240 0 340 -43q30 60 30 111q0 31 -26 43t-94 12q-7 0 -123.5 -6.5t-239.5 -12t-189 -5.5q-77 0 -154 4z" />
<glyph unicode="G" horiz-adv-x="1607" d="M85 695q0 -215 110.5 -379t312.5 -254t467 -90q333 0 441 116q37 38 62 164.5t25 286.5q0 112 -20 154.5t-72 42.5q-51 0 -75 -18.5t-23.5 -55t8.5 -74.5t19.5 -92.5t11.5 -94.5q0 -121 -20 -243q-185 -66 -348 -66q-349 0 -539.5 166.5t-190.5 469.5q0 151 59 282 t162 223.5t246.5 145t308.5 52.5q98 0 186 -24q22 54 22 92q0 39 -37 56.5t-118 17.5q-222 0 -412 -78q-195 -80 -338 -220q-248 -256 -248 -580z" />
<glyph unicode="H" horiz-adv-x="1738" d="M162 1505q28 -68 46 -199q18 -157 18 -412q0 -32 -12 -394.5t-12 -372.5q0 -81 12 -104t60 -23q61 0 138 39q-29 78 -42 191q-15 131 -15 399v145h1030q-3 -359 -15 -658q0 -66 15.5 -91t56.5 -25q69 0 147 37q-32 77 -46 213q-18 172 -18 471q0 69 2 166.5t5 187.5 t6 169.5t5 130.5t2 52q0 66 -15 92t-53 26q-54 0 -145 -40q55 -143 55 -517v-120h-1032l18 561q0 64 -15.5 90t-55.5 26q-59 0 -140 -40z" />
<glyph unicode="I" horiz-adv-x="643" d="M197 1505q28 -68 42 -192q17 -126 17 -419q0 -36 -9.5 -396t-9.5 -371q0 -89 15 -109q15 -18 55 -18q29 0 45.5 1t38.5 8.5t32 21.5q5 8 3 43.5t-3 47t-6 51.5t-7 57q-18 157 -18 403q0 48 1 105.5t2 114.5t3 117.5t4 116t4 106.5t4 93.5t3 74t2 49.5l1 17q0 66 -16 92 t-56 26q-56 0 -147 -40z" />
<glyph unicode="J" horiz-adv-x="862" d="M33 66q0 -44 47.5 -71.5t125.5 -27.5q160 0 266.5 121t141.5 333q16 141 21 320q7 238 7 604q0 90 -6 129.5t-20 53t-46 13.5q-56 0 -132 -36q68 -182 68 -707q-3 -405 -57 -539q-66 -156 -223 -156q-85 0 -158 53q-35 -48 -35 -90zM42 178q5 -3 13.5 -11t12.5 -11 q6 6 20 24z" />
<glyph unicode="K" horiz-adv-x="1363" d="M169 1505q27 -66 41 -188v2q18 -151 18 -414q0 -37 -11 -390t-11 -368q0 -76 17.5 -111.5t54.5 -35.5q53 0 132 46q-24 76 -37 193q-11 148 -11 405v244q0 226 13 457q2 44 2 84q0 65 -14.5 89.5t-55.5 24.5q-52 0 -138 -38zM362 848l54 -24q1 0 2.5 1t2.5 1 q-30 33 -59 62v-40zM421 826q205 -192 431 -443q66 -75 143 -160t79 -87q80 -89 126.5 -122.5t85.5 -33.5q30 0 55.5 29.5t41.5 86.5q-159 74 -666 599q-11 11 -79.5 83.5t-72.5 76.5q87 87 257 245q333 312 333 366q0 47 -116 83q-47 -102 -184 -265q-177 -204 -434 -458z " />
<glyph unicode="L" horiz-adv-x="1019" d="M178 1505q29 -72 46 -212q15 -175 15 -462q0 -310 -20 -675q0 -27 -1.5 -52.5t-3 -41t-1.5 -18.5q0 -27 8.5 -37.5t28.5 -10.5l242 8h45q43 0 173 -3t145 -3q90 0 120.5 12t30.5 49q0 57 -24 101q-39 -19 -134 -35q-83 -15 -259 -15q-95 0 -219 11v234q0 416 20 905 q7 81 7 153q0 80 -13.5 105t-63.5 25q-63 0 -142 -38z" />
<glyph unicode="M" horiz-adv-x="2082" d="M81 39q77 -39 127 -39q30 0 42.5 7.5t25 62t18 147t13.5 289.5q22 458 46 809q231 -425 565 -1105q4 -9 18 -35l4 -6q47 -105 79 -105q26 0 44 29t81 161q263 534 546 1067q39 -480 59 -861q18 -378 24 -401q15 -59 81 -59t149 39q-173 442 -173 1162q0 167 35 304 q-53 40 -94 40q-46 0 -95 -59.5t-118 -199.5q-317 -636 -402 -786q-89 -158 -115 -158q-34 0 -72 65t-191 367q-33 65 -93 183q-170 337 -245 462.5t-124 125.5q-50 0 -97 -40q33 -149 33 -298q0 -716 -171 -1168zM1865 1505l17 -13l-11 35q-1 -4 -6 -22z" />
<glyph unicode="N" horiz-adv-x="1757" d="M127 1464q52 -42 81 -132q31 -102 31 -333q0 -476 -24 -686q-23 -174 -75 -278q70 -35 132 -35q50 0 63 27t13 118q0 85 -4 151q-15 424 -15 973q194 -204 598 -673q366 -425 546 -600l74 39q-24 234 -24 476q0 44 13 446t13 421q0 103 -15.5 134t-63.5 31t-120 -33 q45 -98 66 -232q22 -174 22 -456q0 -92 -9 -596q-630 699 -1019 1166q-16 22 -33 39l2 -2q-2 2 -5.5 6.5t-5.5 6.5l2 -2q-44 51 -73 71.5t-56 20.5q-49 0 -114 -68zM366 1448q0 -4 2 -6z" />
<glyph unicode="O" horiz-adv-x="1835" d="M83 756q0 -172 59.5 -319t163.5 -250t250 -161.5t314 -58.5q177 0 338.5 65.5t281.5 177.5t191.5 272.5t71.5 341.5q0 339 -219 545.5t-581 206.5q-187 0 -349.5 -63t-276.5 -172t-179 -261t-65 -324zM250 771q0 312 186.5 502.5t492.5 190.5q296 0 477 -180t181 -475 q0 -210 -87.5 -375t-245 -257t-356.5 -92q-189 0 -337 87.5t-229.5 244t-81.5 354.5z" />
<glyph unicode="P" horiz-adv-x="1196" d="M131 1530h49h2q-16 38 -22 50zM182 1530q48 -156 48 -673q0 -36 -11 -376t-11 -354q0 -81 12.5 -105t59.5 -24q58 0 141 39q-62 155 -62 572q95 -13 178 -13q257 0 419 147t162 383q0 199 -135 312t-376 113q-37 0 -211.5 -10.5t-213.5 -10.5zM362 708v114q0 335 17 602 q115 27 189 27q192 0 292 -90.5t100 -264.5q0 -185 -114.5 -293t-313.5 -108q-82 0 -170 13zM421 37q2 -5 6.5 -15t6.5 -15l15 46q-5 -3 -14 -7.5t-14 -8.5z" />
<glyph unicode="Q" horiz-adv-x="1835" d="M83 756q0 -253 114 -438h-2q114 -179 331 -263l-11 -59h-22q-112 0 -112 -57q0 -18 20 -46q126 63 252 63q184 0 638 -155q10 -4 40.5 -15t62 -22t33.5 -12q142 -50 249 -50q46 0 71.5 21t25.5 58q0 44 -22 98q-59 -6 -127 -6q-176 0 -469 92l-2 63q295 102 447.5 304 t152.5 492q0 225 -99.5 395.5t-281 263.5t-419.5 93q-249 0 -447.5 -104.5t-310.5 -292t-112 -423.5zM248 771q0 310 186 501.5t489 191.5q301 0 482.5 -178t181.5 -477q0 -156 -51.5 -291t-142 -230t-219 -149t-276.5 -54q-190 0 -338.5 88t-230 244t-81.5 354z" />
<glyph unicode="R" horiz-adv-x="1398" d="M175 1530q21 -67 35 -180q16 -171 16 -441q0 -119 -5.5 -308t-11 -330t-5.5 -144q0 -81 12 -104t60 -23q63 0 138 37q-23 64 -37 160q-16 114 -22 399q101 13 140 13q85 -2 200 -87t247 -246q145 -176 206.5 -236t111.5 -60q33 0 57.5 25t49.5 83q-151 64 -409 363 q-121 133 -187 154l-2 63q340 134 340 474q0 191 -134.5 300t-371.5 109q-1 0 -74.5 -3.5t-181 -9t-172.5 -8.5zM355 677q0 314 18 723l26 31q94 20 166 20q187 0 290 -89t103 -249q0 -204 -138.5 -321t-379.5 -117q-9 0 -42 1t-43 1z" />
<glyph unicode="S" horiz-adv-x="944" d="M112 184l12 -6t16 -7q4 8 16 24zM114 81q0 -96 158 -96q135 0 257 60t196.5 162.5t74.5 219.5q0 81 -86 198.5t-245 237.5q-98 78 -133.5 139.5t-35.5 139.5q0 129 89.5 201.5t248.5 72.5q88 0 168 -29q35 61 35 90q0 81 -140 81q-71 0 -148.5 -23.5t-148.5 -67 t-128.5 -100t-92 -129.5t-34.5 -149q0 -163 278 -383q2 -3 4 -5.5t5 -4.5l2 -1q213 -175 213 -309q0 -119 -85.5 -188t-234.5 -69q-103 0 -191 42q-26 -45 -26 -90z" />
<glyph unicode="T" horiz-adv-x="1306" d="M4 1466q0 -38 33 -101q111 48 406 48h118q0 -83 2 -253t2 -176q0 -36 -11 -446.5t-11 -421.5q0 -68 15 -93t53 -25q72 0 149 39q-29 73 -46 217q-17 162 -17 438q0 318 17 721q64 -2 163 -5t167.5 -5.5t81.5 -2.5q152 0 152 84q0 33 -25 76q-69 -31 -181.5 -43 t-308.5 -12q-20 0 -324.5 10t-311.5 10q-67 0 -95 -13.5t-28 -45.5zM760 37q2 -6 7 -15t7 -15l13 46q-5 -3 -14 -7.5t-13 -8.5z" />
<glyph unicode="U" horiz-adv-x="1646" d="M136 1492l28 13q-8 22 -15 33zM164 1505q60 -129 60 -407q0 -35 -7 -222t-7 -238q0 -362 130.5 -517.5t435.5 -155.5q253 0 403 111.5t218.5 351.5t68.5 644q0 204 -11 303.5t-34.5 134.5t-72.5 35q-47 0 -116 -42q100 -170 100 -629q0 -414 -127 -602.5t-403 -188.5 q-161 0 -257.5 63t-143 204t-46.5 378q0 22 12 346t12 333q0 83 -12.5 110.5t-55.5 27.5q-70 0 -147 -40z" />
<glyph unicode="V" horiz-adv-x="1437" d="M-26 1514l4 -48q7 9 20 22q-9 11 -24 26zM-2 1488q105 -128 285 -625q91 -256 228 -607q59 -150 99 -220.5t69 -70.5q13 0 33.5 20.5t66 86.5t122.5 189q253 414 355 677q111 272 111 489q0 64 -20 90t-69 26q-45 0 -86 -13q22 -70 22 -154q0 -196 -77 -425 q-34 -104 -112 -272t-171 -315t-142 -147q-66 0 -388 940q-55 189 -110.5 287.5t-101.5 98.5q-59 0 -114 -55z" />
<glyph unicode="W" horiz-adv-x="2209" d="M-48 1488q106 -120 309 -655q169 -451 258.5 -658.5t126.5 -207.5q23 0 83.5 68.5t168.5 224t244 378.5l33 -66l2 -4q288 -601 328 -601q37 0 349 500l6 13q173 278 261 519q90 250 90 430q0 61 -19.5 87.5t-63.5 26.5q-41 0 -86 -16q18 -79 18 -151q0 -209 -83 -440 q-88 -243 -259 -526q-58 -94 -94 -134v2q-50 -63 -83 -63q-74 0 -331 510q276 533 276 715q0 46 -16 65.5t-52 19.5q-28 0 -83 -15q15 -65 15 -121q0 -180 -175 -567q-38 71 -46 96h2q-217 607 -314 607q-58 0 -109 -57q79 -69 158 -212q96 -182 234 -526 q-135 -240 -237 -382q-109 -142 -160 -142q-74 0 -324 706q-151 420 -181 490q-46 106 -84 129q-22 12 -55 12q-52 0 -107 -55zM1306 1501q18 7 29 9q-1 7 -4 18.5t-3 12.5z" />
<glyph unicode="X" horiz-adv-x="1437" d="M118 46q0 -25 18 -35.5t61 -10.5q44 0 88 11v20q0 84 94 234q98 152 340 443q182 -261 385 -592q9 -14 17.5 -28t13.5 -22t7 -11l-2 2q24 -32 40.5 -44.5t35.5 -12.5q38 0 68 33.5t46 95.5q-56 29 -155 145q-151 188 -382 526q356 422 434 528q81 118 81 164q0 49 -74 49 q-50 0 -88 -11q2 -4 2 -20q0 -85 -92 -230h2q-88 -140 -284 -377l-53 2q-165 233 -333 504q-2 3 -6.5 9t-8 11t-3.5 6q0 -1 1 -2l4.5 -4.5t7.5 -8.5q-52 81 -74 106t-50 25q-71 0 -117 -133q62 -35 158 -147v2q152 -181 373 -497q-348 -396 -460 -548q-95 -130 -95 -182z " />
<glyph unicode="Y" horiz-adv-x="1302" d="M11 1427q168 -85 559 -772l4 -17l-22 -533q0 -59 15 -82t53 -23q68 0 143 37q-53 139 -53 476q0 12 1 78.5t1 85.5q83 127 206 300q48 73 114 170.5t97 143.5t64.5 98.5t45.5 77.5t12 38q0 46 -57 46q-61 0 -96 -8v-9q0 -88 -94 -250q-79 -144 -347 -532 q-208 323 -392 650q-58 102 -82 129t-54 27q-70 0 -118 -131z" />
<glyph unicode="Z" horiz-adv-x="1265" d="M127 127q0 -67 55 -125q93 16 228 16q14 0 284 -9t281 -9q109 0 144.5 15.5t35.5 69.5q0 37 -13 77q-145 -50 -539 -50q-158 0 -231.5 19t-73.5 60q3 42 92 179q95 138 237 322q1 2 37.5 48.5t77 97.5t40.5 52q325 404 325 523q0 56 -55 114q-59 -11 -182 -11 q-75 0 -208.5 3.5t-240 7t-116.5 3.5q-83 0 -117.5 -18t-34.5 -59q0 -35 16 -83q71 27 175 37q138 15 379 15q125 0 163.5 -15.5t38.5 -61.5q-3 -75 -219 -368q-32 -46 -272 -348h2q-309 -391 -309 -502zM164 0l31 -9q-5 3 -13 11q-4 -2 -18 -2z" />
<glyph unicode="[" horiz-adv-x="770" d="M217 -383l31 -42q5 31 6 42h-20h-17zM254 -383q57 2 158 2q140 0 248 -20q35 48 35 70t-35 22q2 0 -15.5 -1t-47.5 -3t-65 -3.5t-74 -3t-68 -2.5q0 13 9 430t9 468q0 303 -16 859l33 35q140 -3 235 -13q35 0 35 27q0 26 -38 67q-98 -21 -219 -21q-96 0 -184 4 q14 -98 20 -302q6 -262 6 -656q0 -396 -6 -659q-6 -200 -20 -300z" />
<glyph unicode="\" horiz-adv-x="808" d="M-35 1536q0 -8 28 -68l-2 2q475 -1076 704 -1599v4q40 -88 98 -88q29 0 29 9q0 15 -24 68l-706 1589q-25 63 -41.5 76.5t-59.5 13.5q-26 0 -26 -7z" />
<glyph unicode="]" horiz-adv-x="770" d="M75 -335q0 -20 37 -68q118 22 221 22q127 0 182 -2q-12 83 -18 304q-8 195 -8 655q0 455 8 653q6 205 20 305q-128 -4 -184 -4q-120 0 -219 19q-39 -50 -39 -70q0 -22 37 -22q6 0 19 2q137 11 250 14q-15 -451 -15 -897q0 -481 15 -900q-134 3 -267 15h-2q-37 0 -37 -26z M515 -383q1 -6 7 -40l32 40h-15h-24z" />
<glyph unicode="^" horiz-adv-x="2191" d="M476 1015q0 -22 13 -22q26 0 120 74l401 325q1 1 4 3.5t5 4.5l2 2q42 33 68 33q29 0 92 -48l403 -324q83 -70 121 -70q17 0 17 19q0 24 -85 106l-20 17l-57 57l-258 263l-5 4q-4 2 -22 20q-92 97 -184 97q-90 0 -171 -84l-2 -4l-26 -26l-320 -322q-96 -96 -96 -125z" />
<glyph unicode="_" d="M9 -476v-63h1078v63h-1078z" />
<glyph unicode="`" d="M289 1481q0 -43 53 -88t121 -75.5t126 -50.5t75 -20q15 0 15 2t-22.5 22.5t-51 46.5t-37.5 36l2 -2q-29 29 -63.5 65t-52.5 55t-37.5 37.5t-34 26t-27.5 7.5q-29 0 -47.5 -17.5t-18.5 -44.5z" />
<glyph unicode="a" horiz-adv-x="1089" d="M103 294q0 -139 93.5 -223t246.5 -84q155 0 363 175q3 -86 18 -123t46 -37q38 0 94 33q-63 119 -63 390q0 36 3 148t3 126q0 362 -375 362q-144 0 -241.5 -44t-97.5 -110q0 -38 33 -59q91 134 291 134q140 0 214.5 -69.5t74.5 -202.5q0 -37 -11 -81q-127 13 -203 13 q-222 0 -355.5 -94t-133.5 -254zM221 309q0 263 384 263q53 0 166 -15l29 -31q0 -4 1 -14.5t1 -16.5q0 -20 -1 -58t-1 -43q0 -95 4 -170q-139 -145 -318 -145q-125 0 -195 61.5t-70 168.5zM964 35q6 -6 22 -31l9 49q-6 -3 -15.5 -8.5t-15.5 -9.5z" />
<glyph unicode="b" horiz-adv-x="1222" d="M129 1538q28 -66 38 -157v2q13 -111 13 -456q0 -252 -7 -497q-7 -232 -20 -353q210 -90 386 -90q126 0 236.5 45t189 122t123.5 184.5t45 229.5q0 205 -127.5 340t-321.5 135q-165 0 -395 -155q1 97 5 239t7.5 239.5t3.5 92.5q0 67 -11.5 90.5t-43.5 23.5q-41 0 -121 -35 zM131 85l20 -32q0 3 1 11t1 13q-4 1 -11 4t-11 4zM283 489q0 104 6 311v24q192 129 342 129q171 0 275 -111t104 -292q0 -205 -123 -341.5t-311 -136.5q-130 0 -269 77l-18 29q-1 67 -3.5 165.5t-2.5 145.5z" />
<glyph unicode="c" horiz-adv-x="927" d="M96 454q0 -210 143.5 -341t374.5 -131q124 0 196.5 32.5t72.5 86.5q0 28 -15 55q-105 -68 -239 -68q-182 0 -292.5 108t-110.5 293q0 198 122 330t305 132q94 0 171 -39q33 36 33 72q0 79 -158 79q-164 0 -302.5 -80t-219.5 -220t-81 -309zM806 892l42 4l-24 16 q-2 -4 -18 -20z" />
<glyph unicode="d" horiz-adv-x="1267" d="M92 482q0 -218 132 -356.5t339 -138.5q107 0 209.5 56.5t213.5 177.5v-103v-37q0 -44 11 -62.5t37 -18.5q51 0 119 31q-34 77 -46 177q-16 151 -16 421q0 47 15.5 440.5t15.5 407.5q0 56 -14 77.5t-50 21.5q-44 0 -109 -31q46 -116 46 -416v-149q-204 76 -322 76 q-252 0 -416.5 -163.5t-164.5 -410.5zM217 486q0 222 124.5 354.5t331.5 132.5q127 0 311 -75q4 -132 4 -227v-31q0 -39 -6 -342l-7 -22q-156 -201 -379 -201q-173 0 -276 110.5t-103 300.5z" />
<glyph unicode="e" horiz-adv-x="1075" d="M94 506q0 -241 144 -378t393 -137q123 0 207.5 30t84.5 73q0 25 -22 62q-119 -75 -274 -75q-190 0 -303.5 112t-113.5 300v55q217 -31 384 -31q221 0 310 46t89 158q0 147 -109 243.5t-279 96.5q-224 0 -367.5 -156t-143.5 -399zM226 646q25 162 119 252t238 90 q138 0 217 -68.5t79 -185.5q0 -82 -56.5 -116.5t-211.5 -34.5q-201 0 -359 24zM881 182q12 -12 20 -26q5 4 13 10t13 9z" />
<glyph unicode="f" horiz-adv-x="677" d="M77 942q0 -28 30 -28h99l33 -33v-40q6 -184 6 -276q0 -380 -59 -530q73 -35 127 -35q38 0 49 24t11 97l-13 532q-3 158 -3 267q60 5 83 5q131 0 174 -11q11 26 11 46q0 37 -38 37q-120 0 -228 -15v74q0 217 48 314.5t156 97.5q65 0 123 -55q57 33 57 75q0 35 -38.5 57 t-99.5 22q-179 0 -273.5 -137.5t-94.5 -395.5v-59h-119q-5 0 -18.5 1t-14.5 1q-8 -18 -8 -35z" />
<glyph unicode="g" horiz-adv-x="1099" d="M61 -213q0 -144 121.5 -225t328.5 -81q223 0 366.5 101t143.5 256q0 108 -69 163.5t-262 99.5h2q-26 3 -81 17h3q-241 53 -241 156q0 53 65 118q104 -9 110 -9q165 0 277.5 95t112.5 236q0 102 -107 233q119 16 169 40.5t50 64.5q0 30 -13 52q-63 -47 -263 -100 q-126 68 -231 68q-178 0 -292.5 -101.5t-114.5 -258.5q0 -191 197 -293l11 -53q-83 -83 -83 -142q0 -44 83 -119q-283 -120 -283 -318zM175 -178q0 164 206 246l13 -66l16 64l-5 2q12 -2 16 -2q482 -113 482 -272q0 -107 -108 -173v2q-99 -63 -254 -63q-164 0 -265 72.5 t-101 189.5zM243 728q0 118 83 190t217 72q127 0 209.5 -74.5t82.5 -192.5q0 -114 -85 -190.5t-211 -76.5q-128 0 -212 77.5t-84 194.5z" />
<glyph unicode="h" horiz-adv-x="1206" d="M149 1545q26 -69 31 -134q13 -123 13 -377q0 -96 -3 -227.5t-7.5 -250.5t-9.5 -222t-8 -165.5t-3 -58.5q0 -80 13 -99q11 -11 44 -11q61 0 116 28q-20 56 -30 134q-14 95 -15 283q0 133 10 399q106 68 185 97.5t155 29.5q146 0 210 -104t64 -348q0 -58 -6.5 -230.5 t-6.5 -192.5q0 -61 9.5 -78.5t49.5 -17.5q44 0 112 31q-26 50 -35 122t-9 217q0 34 4.5 149t4.5 136q0 192 -95.5 297.5t-268.5 105.5q-149 0 -375 -153q1 61 4 141t6.5 151t6.5 132.5t5 97t2 32.5q0 68 -13 92.5t-46 24.5q-55 0 -114 -31zM335 28q2 -5 5 -10t6.5 -10.5 t4.5 -7.5l13 44q-13 -10 -29 -16z" />
<glyph unicode="i" horiz-adv-x="550" d="M162 1394q0 -42 26 -66t71 -24q54 0 88 32t34 82q0 41 -27.5 66.5t-70.5 25.5q-47 0 -84 -34t-37 -82zM167 1012q20 -50 32 -127q14 -92 14 -232q0 -89 -10 -308t-10 -229q0 -73 10.5 -94.5t50.5 -21.5q62 0 127 31q-52 134 -52 396q0 39 1 89.5t3 100t4.5 100t5 93.5 t4.5 76.5t3 53.5l1 20q0 48 -12.5 66.5t-44.5 18.5q-63 0 -127 -33zM381 31q2 -4 6.5 -14.5t6.5 -14.5l14 44q-4 -2 -13 -7.5t-14 -7.5z" />
<glyph unicode="j" horiz-adv-x="577" d="M-46 -405q0 -13 9 -22t22 -9q54 0 155.5 99.5t150.5 209.5h-2q46 103 70 309q20 255 20 657v42q0 76 -5.5 109.5t-17 44t-38.5 10.5q-56 0 -125 -33q50 -131 50 -521q0 -327 -44 -509q-42 -176 -149 -291q-7 -7 -33.5 -29t-44.5 -39.5t-18 -27.5zM164 999l10 4t10.5 5 t8.5 4q-4 12 -13 33zM186 1394q0 -42 26.5 -66t70.5 -24q53 0 89 32t36 82q0 41 -28 66.5t-71 25.5q-49 0 -86 -33.5t-37 -82.5z" />
<glyph unicode="k" horiz-adv-x="1099" d="M149 1543q27 -76 31 -136q11 -110 11 -381q0 -291 -13 -586q-2 -24 -6 -105.5t-7 -151.5t-3 -73q0 -60 12.5 -85t42.5 -25q56 0 118 31q-46 120 -46 429v125q0 -2 2 -2q0 367 25 769q0 35 2 72t2 38q0 69 -10.5 91.5t-46.5 22.5q-48 0 -114 -33zM291 502q8 7 23 20t23 19 q-24 20 -46 42v-81zM335 31q3 -5 8.5 -16.5t9.5 -16.5l13 48q-6 -4 -31 -15zM337 541q222 -208 340 -328q233 -239 296 -239q50 0 74 79q-128 60 -501 414h2q-33 33 -92 83q502 394 502 427q0 41 -90 75q-46 -74 -158 -186q-127 -127 -373 -325zM1047 53q23 -7 36 -7h4 l-35 37q-1 -4 -2.5 -14.5t-2.5 -15.5z" />
<glyph unicode="l" horiz-adv-x="567" d="M171 1543q24 -59 39 -169q14 -126 14 -368q0 -34 -12.5 -453t-12.5 -441q0 -63 13.5 -87.5t48.5 -24.5q53 0 117 31q-22 52 -36 157q-13 111 -12 369q0 38 12.5 465.5t12.5 443.5q0 69 -10.5 89.5t-53.5 20.5q-57 0 -120 -33zM378 31q8 -22 16 -31l14 46 q-6 -2 -16.5 -7.5t-13.5 -7.5z" />
<glyph unicode="m" horiz-adv-x="1863" d="M101 1043q15 5 35 9q-2 6 -7.5 18t-7.5 19zM136 1052q44 -127 44 -351q0 -87 -7 -228t-13.5 -246.5t-6.5 -108.5q0 -77 9 -97.5t46 -20.5q56 0 121 31q-46 113 -46 374q0 12 1.5 93.5t3.5 191t3 149.5q173 121 318 121q147 0 213 -99h-2q59 -97 59 -342 q0 -67 -5.5 -240.5t-5.5 -182.5q0 -55 11.5 -75.5t43.5 -20.5q55 0 116 31q-20 51 -29 105q-11 75 -11 234v119q0 103 -4 203q-5 56 -20 160q177 112 327 112q153 0 222 -97t69 -315q0 -49 -8.5 -236t-8.5 -222q0 -56 12 -75t47 -19q43 0 112 33q-24 52 -34 125.5t-10 205.5 q0 43 3 155.5t3 122.5q0 202 -97.5 309t-281.5 107q-86 0 -186.5 -38t-196.5 -106q-136 136 -285 136q-159 0 -371 -145q-11 151 -103 151q-22 0 -52 -4z" />
<glyph unicode="n" horiz-adv-x="1230" d="M149 1052q12 -30 29 -127q10 -81 10 -246q0 -41 -1 -94t-3 -105.5t-4 -105.5t-4.5 -98.5t-4.5 -80.5t-3 -56l-1 -21q0 -78 8.5 -98t45.5 -20q56 0 121 31q-46 120 -46 370q0 2 2 77.5t4 179.5t3 166l15 28q184 117 331 117q154 0 223.5 -99t69.5 -318q0 -146 -8 -261 q-7 -173 -7 -195q0 -56 13 -76t48 -20q46 0 114 31q-48 102 -48 313q0 30 2.5 105.5t2.5 82.5q0 156 -16 233q-24 136 -115 214.5t-233 78.5q-180 0 -392 -155q-5 75 -32 115t-71 40q-23 0 -53 -6z" />
<glyph unicode="o" horiz-adv-x="1314" d="M90 508q0 -235 153.5 -385.5t396.5 -150.5q83 0 166 24.5t158.5 73.5t133.5 117t92.5 162t34.5 201q0 224 -153.5 373t-387.5 149q-264 0 -429 -156.5t-165 -407.5zM215 508q0 215 124.5 345.5t320.5 130.5t317 -127h-2q125 -125 125 -325q0 -204 -125.5 -335 t-319.5 -131q-190 0 -315 126t-125 316z" />
<glyph unicode="p" horiz-adv-x="1271" d="M147 1037q24 -80 33 -156q13 -134 13 -355q0 -43 -15.5 -475t-15.5 -450q0 -52 12.5 -73t44.5 -21q48 0 116 31q-48 121 -48 387q0 101 2 132l53 28q127 -85 291 -85q147 0 273.5 74.5t200.5 201t74 274.5q0 210 -143.5 351.5t-353.5 141.5q-86 0 -189 -39.5t-204 -113.5 q-3 72 -27 112.5t-65 40.5q-25 0 -52 -6zM296 215q0 401 6 611q185 127 344 127q187 0 299.5 -119t112.5 -315q0 -186 -123 -310t-310 -124q-157 0 -316 101z" />
<glyph unicode="q" horiz-adv-x="1241" d="M92 482q0 -217 131.5 -356t335.5 -139q96 0 193.5 54t209.5 169q0 -83 -2 -307t-2 -289q0 -61 13.5 -83t49.5 -22q51 0 116 31q-36 98 -50 263q-20 206 -20 578q0 269 9 401q6 141 22 248h-18q-10 0 -18 -0.5t-13 -1t-6 -0.5q-38 0 -179 15t-169 15q-172 0 -309.5 -73 t-215.5 -205t-78 -298zM206 486q0 228 129.5 358.5t354.5 130.5q108 0 276 -37v-40q0 -27 2 -91q1 -43 1 -72v-25q0 -17 -2.5 -155.5t-2.5 -256.5l-6 -22q-163 -201 -373 -201q-171 0 -275 111.5t-104 299.5zM1098 1030q6 0 21 1t21 1l-38 40q-4 -30 -4 -42z" />
<glyph unicode="r" horiz-adv-x="790" d="M160 1041q20 -62 28.5 -131.5t8.5 -199.5q0 -91 -6 -237.5t-12 -257t-6 -112.5q0 -64 10 -83.5t51 -19.5q62 0 130 31q-66 149 -66 447q0 104 13 212q66 113 135 173t133 60q80 0 118 -77q55 49 55 94q0 42 -36 73.5t-81 31.5q-129 0 -282 -219l-62 22q7 100 7 105 q0 92 -94 92q-29 0 -44 -4z" />
<glyph unicode="s" horiz-adv-x="751" d="M127 116q9 -7 31 -15q2 7 15 28zM138 35q0 -28 25 -44.5t69 -16.5q161 0 275.5 91.5t114.5 217.5q0 64 -39.5 117.5t-137.5 138.5h2q-169 145 -169 237q0 86 68.5 140.5t172.5 54.5q49 0 97 -16q24 47 24 71q0 21 -20 33.5t-57 12.5q-94 0 -188 -42t-158 -120t-64 -169 q0 -105 178 -250q106 -88 139.5 -136.5t33.5 -111.5q0 -78 -58.5 -125.5t-154.5 -47.5q-68 0 -133 31q-20 -43 -20 -66z" />
<glyph unicode="t" horiz-adv-x="724" d="M70 916q0 -13 11.5 -18.5t39.5 -5.5q2 0 17.5 1t37.5 2t39 1l35 -35q-7 -108 -18 -330.5t-11 -247.5q0 -148 50.5 -220t153.5 -72q58 0 93.5 25.5t35.5 66.5q0 13 -2 20q-28 -11 -59 -11q-56 0 -88 26t-48.5 94t-16.5 191q0 163 19 502q83 9 147 9q80 0 125 -11 q20 40 20 61q0 24 -35 24q-68 0 -250 -24q22 214 22 303q0 87 -55 87q-40 0 -105 -30q35 -99 35 -255q0 -5 -1 -42t-1 -54q-22 -8 -46 -11.5t-37 -3.5h-33.5h-21.5q-29 0 -40 2h-2q-11 -28 -11 -44z" />
<glyph unicode="u" horiz-adv-x="1196" d="M127 1017q40 -97 40 -276q0 -47 -5.5 -194.5t-5.5 -165.5q0 -194 89 -296.5t257 -102.5q101 0 182 40.5t153 126.5l59 -20q0 -92 13 -114q5 -15 38 -15q36 0 109 33q-26 58 -35 118q-13 85 -13 261q0 82 6.5 286.5t6.5 215.5q0 83 -10.5 108t-44.5 25q-46 0 -116 -32 q53 -126 53 -401q0 -185 -11 -336q-84 -107 -169.5 -156.5t-187.5 -49.5q-142 0 -201.5 91t-59.5 321q0 67 7.5 261.5t7.5 212.5q0 51 -12 70t-45 19q-40 0 -105 -30z" />
<glyph unicode="v" horiz-adv-x="1179" d="M15 958l9 -44q8 8 15 24q-3 3 -11.5 9.5t-12.5 10.5zM39 938q129 -110 252 -480v2q82 -257 131 -365t97 -108q53 0 118 67t176 242q134 212 206 386t72 282q0 43 -25.5 63t-83.5 20q-18 0 -48 -4q13 -51 13 -107q0 -217 -184 -561q-57 -105 -112 -172t-83 -67 q-54 0 -195 440h2q-63 198 -103 299.5t-65.5 136.5t-53.5 35q-44 0 -114 -109z" />
<glyph unicode="w" horiz-adv-x="1800" d="M-7 1001l5 -43q5 9 15 19q-13 20 -20 24zM13 977q61 -77 162 -339q248 -647 316 -647q53 0 155 187q116 207 255 648q80 -310 141 -497.5t103 -262.5t76 -75q37 0 123.5 114.5t173 266t136.5 270.5q84 205 84 318q0 90 -94 90q-30 0 -55 -5q15 -58 15 -109 q-3 -261 -206 -616q-43 -74 -82.5 -122.5t-57.5 -48.5q-44 0 -113 169t-126 412q-34 158 -59 230t-51 72q-43 0 -76 -147q-34 -170 -96.5 -345t-124 -283t-97.5 -108q-41 0 -97 129.5t-144 400.5q0 4 -3 14t-4 15v-2q-10 32 -22 71t-20 64t-17 54.5t-15.5 47.5t-14 37.5 t-13.5 31t-13 21t-14 13.5t-15 4q-51 0 -110 -73z" />
<glyph unicode="x" horiz-adv-x="1110" d="M90 35q0 -26 16 -37t52 -11q32 0 70 11v13q0 62 66 158q60 85 252 287q84 -118 184 -268q138 -201 184 -201q55 0 83 81q-47 28 -152.5 151t-239.5 307l41 37q369 374 369 443q0 52 -62 52q-31 0 -68 -13v-8q0 -68 -65 -165q-63 -91 -246 -291q-97 121 -210 287 q-132 190 -173 190q-54 0 -88 -83q50 -27 118 -101v3q98 -107 283 -355l-79 -79q-335 -325 -335 -408zM228 -2q0 -11 2 -18l2 -4l22 31q-14 -6 -26 -9z" />
<glyph unicode="y" horiz-adv-x="1142" d="M35 903q65 -35 153 -180q95 -160 344 -743l-43 -92v2q-79 -177 -182 -269q65 -92 114 -92q15 0 32.5 20.5t42 73.5t44 99.5t59.5 146t67 164.5q114 277 270 602q155 314 155 362q0 21 -14 34.5t-38 13.5q-31 0 -103 -26q4 -18 4 -31q0 -155 -342 -872q-164 341 -380 865 l-3 7h2q-17 32 -32 44.5t-38 12.5q-33 0 -63 -37.5t-49 -104.5zM283 -401q5 5 13 12t11 10q-4 4 -9.5 11.5t-8.5 10.5zM907 1010q2 1 8 3.5t11.5 4t9.5 1.5q-1 7 -4 18.5t-3 12.5z" />
<glyph unicode="z" horiz-adv-x="983" d="M81 46q0 -25 20 -48q93 11 193 11q75 0 186 -2t184 -5l74 -2q84 0 121 17t37 55q0 19 -6 49q-67 -20 -130 -25q-128 -8 -274 -8h-50q-1 0 -72 2t-112 2q174 260 425 581q219 284 219 324q0 25 -19 48q-59 -13 -248 -13q-51 0 -207.5 4.5t-184.5 4.5q-60 0 -84 -12.5 t-24 -44.5q0 -23 11 -64q105 33 327 33q5 0 44 -1t72 -1q13 0 21 0.5t13.5 0.5t31.5 -1.5t81 -6.5q-174 -256 -434 -593q-215 -276 -215 -305zM83 -4l29 -9q-1 1 -4 3.5t-4.5 4t-2.5 3.5q-3 0 -9 -1t-9 -1z" />
<glyph unicode="{" horiz-adv-x="770" d="M61 568q0 -21 64 -38q15 -2 44 -11q68 -19 105.5 -56t57 -111.5t19.5 -200.5q0 -40 -2.5 -115t-2.5 -86q0 -205 64.5 -279t242.5 -74q93 0 96 37q0 12 -76 15q-116 10 -166.5 67.5t-50.5 200.5q0 3 0.5 65t1 142.5t0.5 127.5q0 145 -52.5 211.5t-173.5 71.5l-4 65 q93 20 140.5 60t68.5 118.5t21 222.5v231q0 118 42 177t138 77q18 3 48.5 4.5t46.5 4t16 10.5q0 40 -133 40q-143 0 -206.5 -84.5t-63.5 -272.5v-296q0 -131 -56 -202t-176 -90q-33 -5 -43 -11t-10 -21z" />
<glyph unicode="|" d="M511 -539h74v2220h-74v-2220z" />
<glyph unicode="}" horiz-adv-x="770" d="M22 -366q3 -37 94 -37q178 0 243.5 74t65.5 279q0 14 -2 92.5t-2 115.5q0 135 21 207.5t67 108t140 58.5q57 14 57 36q0 4 -1 8t-2.5 6.5t-5 5t-6.5 4t-8 3t-8.5 2.5l-10.5 3t-11 3l4 -3q-121 23 -177.5 93.5t-56.5 198.5v296q0 187 -63.5 272t-203.5 85q-134 0 -134 -40 q0 -14 57 -17q129 -7 181.5 -71t52.5 -227q0 -21 -1 -116t-1 -116q0 -176 51 -253.5t188 -106.5l-4 -63q-125 -5 -180 -71.5t-55 -211.5l2 -316q0 -147 -45 -213t-147 -71q-99 0 -99 -18z" />
<glyph unicode="~" horiz-adv-x="1824" d="M169 565q0 -17 11.5 -27t32.5 -10q15 0 133 66q136 77 248 77q103 0 329 -77q59 -21 155 -51q78 -21 167 -21q165 0 302 70q121 66 121 129q0 19 -14 30.5t-37 11.5q-9 0 -116 -64q-126 -70 -254 -70t-331 81h2q-35 12 -77 28v-2q-134 46 -247 46q-116 0 -221 -43 t-180 -119q-24 -29 -24 -55z" />
<glyph unicode="&#xa6;" d="M511 388v-778h74v778h-74zM511 752v780v-780z" />
<glyph unicode="&#xa7;" d="M186 618q0 -125 206 -298l-2 2l9 -9v3q154 -136 218.5 -209t64.5 -127q0 -73 -63.5 -122t-167.5 -49q-75 0 -155 33q-22 -41 -22 -66q0 -72 114 -72q168 0 290 94t122 222q0 66 -55.5 136.5t-179.5 163.5q167 63 257 155t90 198q0 131 -228 317l-5 5q-143 116 -183 168.5 t-40 116.5q0 79 71 132.5t176 53.5q47 0 92 -15q27 47 27 74q0 51 -92 51q-91 0 -185.5 -47t-157.5 -126.5t-63 -162.5q0 -125 156 -228l-7 -59q-138 -58 -212.5 -145t-74.5 -190zM283 646q0 90 68.5 163.5t196.5 121.5q150 -89 205.5 -152t55.5 -137q0 -177 -250 -276h-27 q-130 72 -189.5 139t-59.5 141z" />
<glyph unicode="&#xa8;" d="M259 1385q0 -38 24 -60.5t65 -22.5q46 0 77 25.5t31 66.5q0 37 -26 61t-66 24q-45 0 -75 -27t-30 -67zM644 1385q0 -39 24.5 -61t63.5 -22q48 0 77.5 25.5t29.5 66.5q0 38 -26.5 61.5t-69.5 23.5q-41 0 -70 -27t-29 -67z" />
<glyph unicode="&#xab;" horiz-adv-x="808" d="M101 522q0 -67 94 -167q75 -81 110 -81q15 0 15 13q0 -1 -9.5 15.5t-23.5 44t-28 58t-23.5 63t-9.5 54.5q0 68 50 157q44 72 44 77q0 13 -15 13q-38 0 -110 -83q-94 -100 -94 -164zM478 522q0 -34 39.5 -94.5t89.5 -107t77 -46.5q13 0 13 13q0 -1 -9.5 15.5t-23.5 44 t-28 58t-23.5 63t-9.5 54.5q0 69 52 157q42 69 42 77q0 13 -13 13q-36 0 -114 -83q-92 -95 -92 -164z" />
<glyph unicode="&#xac;" horiz-adv-x="1824" d="M263 841q0 -18 19.5 -32t48.5 -14h1045q70 0 70 -72v-272q0 -31 15 -50.5t38 -19.5t36.5 20t13.5 53v352q0 41 -22.5 63.5t-62.5 22.5h-1131q-33 0 -51.5 -14t-18.5 -37z" />
<glyph unicode="&#xad;" horiz-adv-x="673" d="M61 465l46 -29q-2 13 -2 42q-3 0 -44 -13zM105 478q34 11 90 11q29 0 131.5 -10t124.5 -10q62 0 91.5 27t29.5 85v11l-2 2q-42 -7 -75 -7q-35 0 -144.5 9t-124.5 9q-63 0 -92 -26.5t-29 -83.5v-17z" />
<glyph unicode="&#xaf;" d="M230 1278l40 -11q-12 12 -16 19q-16 -4 -24 -8zM234 1343q0 -23 20 -57q58 18 149 18q52 0 198.5 -4.5t161.5 -4.5q105 0 105 57q0 21 -20 61q-51 -15 -149 -15q-171 0 -263 7h2q-19 1 -39.5 2t-31 1.5t-16.5 0.5q-117 0 -117 -66z" />
<glyph unicode="&#xb0;" horiz-adv-x="720" d="M79 1256q0 -120 80 -201.5t200 -81.5t202.5 82t82.5 201q0 118 -82.5 200t-199.5 82q-119 0 -201 -80.5t-82 -201.5zM131 1258q0 103 63.5 164.5t167.5 61.5q97 0 162 -68v2q68 -65 68 -165q0 -94 -67 -160.5t-166 -66.5q-96 0 -162 68t-66 164z" />
<glyph unicode="&#xb1;" horiz-adv-x="1824" d="M272 79q0 -24 17 -37.5t48 -13.5h1144q73 0 73 51q0 21 -19 35.5t-47 14.5h-1146q-33 0 -51.5 -13.5t-18.5 -36.5zM272 835q0 -20 20.5 -35t47.5 -15h523v-303q0 -33 14 -51.5t37 -18.5q48 0 48 72v301h522q70 0 70 48q0 23 -19.5 39t-48.5 16h-524v304q0 29 -13.5 48.5 t-34.5 19.5q-24 0 -37.5 -19.5t-13.5 -52.5v-300h-521q-33 0 -51.5 -14t-18.5 -39z" />
<glyph unicode="&#xb2;" horiz-adv-x="821" d="M94 679q0 -26 11 -48q62 4 92 4q45 0 200 -3t179 -3q69 0 96 12t27 43q0 24 -15 57q-94 -44 -265 -44q-153 0 -174 6l-13 62q239 149 352 276t113 245q0 116 -83.5 184t-221.5 68q-105 0 -177.5 -40.5t-72.5 -97.5q0 -36 33 -61q69 129 215 129q100 0 156.5 -49.5 t56.5 -138.5q0 -104 -77 -197q-72 -95 -296 -255l2 3q-138 -99 -138 -152z" />
<glyph unicode="&#xb3;" horiz-adv-x="821" d="M96 666q0 -57 149 -57q197 0 325 83q122 86 122 196q0 72 -48.5 116t-152.5 65l-5 64q92 33 141.5 84t49.5 115q0 91 -86.5 148.5t-224.5 57.5q-104 0 -173 -33h2q-55 -31 -55 -59q0 -25 29 -44q75 62 193 62q100 0 156 -39t56 -110q0 -58 -54 -106t-150 -74 q-27 -8 -74 -16.5t-69.5 -15.5t-22.5 -18q0 -26 81 -29q154 0 229 -45t75 -128q0 -87 -85 -144t-213 -57q-99 0 -166 43q-29 -38 -29 -59z" />
<glyph unicode="&#xb4;" d="M405 1249q0 -2 16 -2q42 0 131.5 37.5t167.5 95t78 101.5q0 28 -18 45t-50 17q-48 0 -215 -189q-12 -14 -40 -40t-49 -44.5t-21 -20.5z" />
<glyph unicode="&#xb7;" horiz-adv-x="622" d="M191 769q0 -51 33.5 -83.5t86.5 -32.5t87 32.5t34 83.5q0 53 -34 87t-87 34q-52 0 -86 -34t-34 -87z" />
<glyph unicode="&#xbb;" horiz-adv-x="808" d="M116 287q0 -13 11 -13q33 0 83.5 49t87.5 108t37 88q0 70 -94 167q-78 83 -114 83q-11 0 -11 -13q0 -3 42 -77q52 -88 52 -160q0 -31 -23.5 -89t-46.5 -100zM491 287q0 -13 11 -13q33 0 83.5 47t87.5 106t37 92q0 68 -92 169v-2q-75 83 -116 83q-11 0 -11 -13 q0 -5 44 -77q50 -89 50 -160q0 -31 -23.5 -89t-47.5 -100z" />
<glyph unicode="&#x2c6;" d="M250 1256q0 -7 2 -7q15 0 75 44q26 18 35 22l6 6q78 51 115 71.5t58 20.5q8 0 17 -3t26 -12.5t29.5 -17t43 -26t49.5 -30.5l-3 2q14 -4 18 -11l-2 2l11 -7q91 -63 109 -63q9 0 9 9q0 17 -17 41t-66 73l-7 6q-159 156 -217 156t-182 -138l3 4q-2 -3 -27 -28 q-85 -85 -85 -114z" />
<glyph unicode="&#x2dc;" d="M221 1256q3 0 3 2zM224 1258q39 37 87 62t90 25q41 0 149 -35q92 -30 140 -30q77 0 133 54.5t56 127.5q-30 -32 -74 -53.5t-84 -21.5q-24 0 -141.5 32t-145.5 32q-77 0 -142.5 -59t-65.5 -123q0 -9 -2 -11zM879 1462l2 4q-2 0 -2 -4z" />
<glyph unicode="&#x10a0;" horiz-adv-x="1202" d="M90 298q0 127 77.5 207t200.5 80h18q114 0 193 -99q54 60 101.5 85t106.5 25v88q-111 0 -176 66.5t-65 174.5q0 76 17.5 111.5t58.5 35.5q18 0 34.5 -14t16.5 -32l-18 -77q0 -156 130 -156q181 0 181 169q0 74 -111 188q-114 111 -114 139q0 102 74 118q0 -73 132 -217 q131 -140 131 -232q0 -103 -60 -188.5t-155 -85.5h-2v-88q103 0 177.5 -89.5t74.5 -208.5q0 -125 -81 -211.5t-219 -86.5q-125 0 -211.5 79.5t-86.5 218.5v114q0 25 -53.5 44.5t-102.5 19.5q-69 0 -114.5 -50t-45.5 -128q0 -232 270 -462q250 -213 392 -480 q121 -220 121 -329q0 -31 -33 -31q-42 0 -118 163q-59 122 -82 164q-6 10 -19.5 34.5t-20.5 36t-18 29t-20.5 30t-19.5 23.5q-117 147 -241 195q-97 30 -154 38l-157 28q38 44 129 44q80 0 193 -44q-149 89 -237 239q-94 154 -94 322zM627 298q0 -188 186 -188 q191 0 191 188t-180 188q-197 0 -197 -188z" />
<glyph unicode="&#x10a3;" horiz-adv-x="1202" d="M90 298q0 127 77.5 207t200.5 80h18q114 0 193 -99q54 60 101.5 85t106.5 25v88q-111 0 -176 66.5t-65 174.5q0 76 17.5 111.5t58.5 35.5q18 0 34.5 -14t16.5 -32l-18 -77q0 -156 130 -156q181 0 181 169q0 74 -111 188q-114 111 -114 139q0 102 74 118q0 -73 132 -217 q131 -140 131 -232q0 -103 -60 -188.5t-155 -85.5h-2v-88q103 0 177.5 -89.5t74.5 -208.5q0 -125 -81 -211.5t-219 -86.5q-125 0 -211.5 79.5t-86.5 218.5v114q0 25 -53.5 44.5t-102.5 19.5q-69 0 -114.5 -50t-45.5 -128q0 -232 270 -462q250 -213 392 -480 q121 -220 121 -329q0 -31 -33 -31q-42 0 -118 163q-59 122 -82 164q-6 10 -19.5 34.5t-20.5 36t-18 29t-20.5 30t-19.5 23.5q-117 147 -241 195q-97 30 -154 38l-157 28q38 44 129 44q80 0 193 -44q-149 89 -237 239q-94 154 -94 322zM627 298q0 -188 186 -188 q191 0 191 188t-180 188q-197 0 -197 -188z" />
<glyph unicode="&#x10a6;" horiz-adv-x="1411" d="M55 1161q0 165 119.5 276.5t292.5 111.5q184 0 292.5 -105t108.5 -289v-638q79 79 190 79q57 0 119 -28q0 18 1 48t1 41q0 10 -1 22.5t-1 17.5v15v-2q0 13 5.5 19.5t22.5 6.5q74 0 92 -24q0 -19 -6.5 -39t-20.5 -56.5t-25 -75.5q109 -103 109 -243q0 -119 -84 -208.5 t-196 -89.5q-153 0 -234.5 77t-81.5 221v543q-188 -65 -307 -65q-164 0 -280 110t-116 275zM167 1170q0 -136 76 -210.5t213 -74.5q108 0 302 66v70q0 163 -30 254t-90 127t-167 36q-121 0 -212.5 -73t-91.5 -195zM868 305q0 -91 55.5 -143t148.5 -52q171 0 171 188 q0 83 -48.5 135.5t-125.5 52.5q-90 0 -145.5 -51.5t-55.5 -129.5z" />
<glyph unicode="&#x10a8;" horiz-adv-x="2191" d="M110 -294q165 99 322 276q3 5 60 74t125 150.5t86 104.5q-156 97 -197 151q-94 22 -162 22q-153 0 -153 -111q0 -68 55 -128t127 -74q-36 -4 -44 -4q-86 0 -142 59t-56 147q0 72 56 118t140 46q69 0 155 -29q-47 43 -78 147.5t-31 205.5q0 111 39 213q-110 -84 -182 -84 q-66 0 -66 84q0 44 14 65.5t52.5 37t126.5 33.5q28 6 44.5 12.5t23 18t8 20.5t1.5 30q0 52 -21.5 85t-53.5 43.5t-69.5 19t-69.5 13t-53.5 23t-21.5 52.5q0 125 155 125q81 0 139 -96.5t58 -212.5q0 -20 -4 -50q213 381 548 381q162 0 342 -79q17 -8 127 -70.5t203 -110 t119 -47.5q85 0 85 57q0 18 -31.5 102t-31.5 102q0 46 63 46q68 0 115.5 -60t47.5 -135q0 -230 -174 -230q-15 0 -30.5 1.5t-34 5.5t-32 7.5t-36 10.5t-33 10.5t-35.5 12t-33 11.5q42 -49 42 -109q0 -79 -64 -137t-149 -58q-103 0 -172 26.5t-69 71.5q0 57 30 100t80 43 q26 0 50 -25t39.5 -55t33.5 -55t34 -25q37 0 69 47t32 86q0 76 -76.5 143t-194.5 104.5t-242 37.5q-391 0 -567 -278l-2 -15q0 -14 41.5 -45.5t83 -70t41.5 -68.5q0 -92 -94 -92q-102 0 -151 124q-35 -89 -35 -192q0 -99 16.5 -172t56.5 -133t92.5 -107t136.5 -103 q201 246 359 357q220 151 494 151q250 0 371.5 -98.5t121.5 -298.5q-104 72 -258.5 126t-265.5 54q-176 0 -329 -134q-70 -59 -258 -300q85 -49 175 -112q147 101 335 101q147 0 285.5 -66t227 -181t88.5 -244h-25q0 121 -87 229t-220 170t-269 62q-168 0 -311 -90 q34 -24 96 -77q117 70 215 70q182 0 316 -99.5t168 -264.5h-24q-125 333 -460 333q-89 0 -195 -59q132 -132 143 -274q-73 121 -198 237q-126 -89 -230 -237h-22q122 170 233 255q-47 43 -97 76q-129 -100 -265 -331h-26q119 229 267 351q-32 24 -85.5 60.5t-67.5 46.5 q-176 -215 -327 -315q-224 -143 -499 -143zM197 -256q226 0 432 164l-53 153q-191 -234 -379 -317zM585 75l55 -156q46 37 118 112l-66 184q-58 -79 -107 -140zM706 234l68 -186q99 117 122 143q-66 45 -151 94zM776 327q13 -10 151 -95l-57 213q-11 -12 -24 -28t-34 -44 t-36 -46zM888 465l56 -213q8 11 95 114l-11 239q-74 -66 -140 -140zM1043 618l11 -235q81 95 145 147v191q-76 -36 -156 -103zM1218 548q77 59 154 94v147q-77 -17 -154 -57v-184zM1392 649q83 30 155 30l13 138q-94 -4 -168 -22v-146zM1571 679q76 0 156 -19l15 149 q-72 11 -129 11h-29zM1753 653q73 -18 147 -48l28 125q-72 53 -160 72zM1922 594q86 -42 133 -83v2q0 28 -29 89t-80 112z" />
<glyph unicode="&#x10a9;" horiz-adv-x="2191" d="M112 -294q0 97 52.5 189t136.5 157.5t193 105t218 39.5q188 0 335 -101q85 60 176 112q-113 145 -186 226.5t-141 130t-124 63t-137 14.5q-113 0 -269 -54t-254 -126q0 200 121.5 298.5t371.5 98.5q273 0 493 -151q158 -111 359 -357q167 108 235 221.5t68 293.5 q0 103 -35 192q-49 -124 -152 -124q-94 0 -94 92q0 24 26 53.5t57.5 52t57.5 45t26 33.5l-2 15q-176 278 -568 278q-126 0 -244 -37.5t-193.5 -104.5t-75.5 -143q0 -39 32 -86t69 -47q14 0 32 25t34.5 55t41.5 55t50 25q50 0 79.5 -42.5t29.5 -100.5q0 -45 -69 -71.5 t-172 -26.5q-82 0 -147 56t-65 139q0 61 41 109q-7 -2 -29 -9.5t-31 -10.5t-29.5 -9.5t-31.5 -9.5t-29 -8t-30.5 -7t-27 -3.5t-26.5 -1.5q-173 0 -173 230q0 75 47 135t115 60q63 0 63 -46q0 -15 -31.5 -100.5t-31.5 -103.5q0 -57 85 -57q46 0 180 79q238 143 354 185.5 t257 42.5q335 0 548 -381q-4 30 -4 50q0 116 58 212.5t139 96.5q156 0 156 -125q0 -37 -30 -55.5t-72.5 -25.5t-85 -17t-72.5 -42t-30 -88q0 -35 28 -59t67.5 -38t79 -27.5t67.5 -38.5t28 -62q0 -84 -66 -84q-72 0 -182 84q40 -105 40 -213q0 -98 -33 -203.5t-77 -149.5 q86 29 156 29q82 0 138.5 -44.5t56.5 -119.5q0 -88 -55.5 -147t-141.5 -59q-8 0 -44 4q72 14 127 74t55 128q0 111 -154 111h-43t-32.5 -4t-28.5 -8.5t-34.5 -19.5t-48 -29.5t-71 -47t-101.5 -64.5q109 -136 310.5 -347.5t283.5 -257.5q-284 0 -500 143q-149 98 -326 315 q-23 -16 -73.5 -51t-80.5 -56q150 -123 268 -351h-27q-136 231 -265 331q-47 -30 -96 -76q109 -83 232 -255h-22q-104 148 -230 237q-123 -114 -197 -237q11 143 142 274q-106 59 -195 59q-335 0 -460 -333h-24q31 162 166 263t318 101q98 0 215 -70q62 53 96 77 q-143 90 -311 90q-139 0 -272 -63.5t-218.5 -171t-85.5 -226.5h-24zM136 511q45 40 134 83l-25 120q-55 -51 -82 -110.5t-27 -90.5v-2zM263 730l28 -125q74 30 147 48l-15 149q-88 -19 -160 -72zM449 809l16 -149q80 19 155 19l-13 141h-28q-58 0 -130 -11zM631 817l13 -138 q74 0 156 -30v146q-74 18 -169 22zM820 642q75 -34 153 -94v184q-78 40 -153 57v-147zM993 530q61 -49 144 -147l11 235q-82 68 -155 103v-191zM1153 366q1 -3 10.5 -14.5t35 -41.5t48.5 -58l57 213q-66 74 -140 140zM1264 232q19 11 71.5 44.5t80.5 50.5v-3 q-11 14 -30 39.5t-34.5 45.5t-30.5 36zM1295 191q36 -39 123 -143l68 186l-40 51q-85 -49 -151 -94zM1433 31q72 -75 118 -112l55 156q-14 18 -49 64.5t-58 75.5zM1562 -92q206 -164 432 -164q-188 83 -379 317z" />
<glyph unicode="&#x10aa;" horiz-adv-x="2191" d="M110 1654q104 0 223.5 -39.5t228.5 -105t206 -147.5t168 -168q11 8 66 45.5t87 62.5q-153 129 -267 352h26q133 -231 265 -333q49 34 97 79q-113 87 -233 254h22q103 -146 230 -236q126 117 198 236q-10 -140 -143 -273q100 -62 195 -62q336 0 460 335h24 q-36 -166 -169.5 -265.5t-314.5 -99.5q-99 0 -215 72q-31 -31 -96 -79q143 -90 311 -90q136 0 269 62.5t220 170.5t87 229h25q0 -131 -87.5 -246t-226 -181t-287.5 -66q-188 0 -335 101q-90 -63 -175 -112q112 -146 185.5 -228t141.5 -130t123 -61.5t137 -13.5 q111 0 265.5 53.5t258.5 125.5q0 -200 -121.5 -298t-371.5 -98q-209 0 -447 147t-406 361q-167 -105 -234.5 -220t-67.5 -295q0 -104 35 -193q50 125 151 125q94 0 94 -92q0 -26 -26 -56t-57 -52t-57 -43.5t-26 -32.5l2 -15q177 -276 567 -276q124 0 242 37t194.5 103 t76.5 142q0 37 -33.5 85.5t-67.5 48.5q-16 0 -34 -25t-33.5 -55t-39.5 -55t-50 -25q-50 0 -80 42.5t-30 99.5q0 45 69 72t172 27q85 0 149 -58t64 -137q0 -60 -42 -110q10 3 38.5 13t41.5 14.5t38.5 12t41.5 11t36.5 6.5t37.5 3q174 0 174 -228q0 -75 -47.5 -135t-115.5 -60 q-63 0 -63 46q0 17 31.5 101t31.5 102q0 57 -85 57q-50 0 -180 -78q-238 -143 -354 -185.5t-257 -42.5q-334 0 -548 379q4 -30 4 -51q0 -115 -58 -210.5t-139 -95.5q-155 0 -155 124q0 38 30 56.5t72.5 25t84.5 16t72 41t30 87.5q0 38 -28 61t-67.5 34t-79 22.5t-67.5 38 t-28 70.5q0 83 66 83q73 0 182 -83q-39 102 -39 212q0 98 32 204.5t77 148.5q-83 -28 -155 -28q-84 0 -140 46t-56 118q0 88 56 147t142 59q8 0 44 -4q-75 -18 -128.5 -76.5t-53.5 -125.5q0 -112 153 -112q34 0 47 1.5t29.5 4t38 16t45.5 28t81 50.5t118 73 q-102 127 -308.5 343t-284.5 264zM197 1617q185 -80 379 -320l53 156q-206 164 -432 164zM585 1284q14 -18 49 -64.5t58 -75.5l66 184q-80 83 -118 114zM706 1124l39 -50q85 49 151 94q-62 74 -122 142zM776 1034q11 -15 30 -39.5t34 -44.5t30 -36l57 212q-109 -66 -151 -92 zM888 894q66 -74 140 -140l11 239q-3 1 -12.5 11.5t-35.5 44t-47 58.5zM1043 741q80 -67 156 -103v190q-64 52 -145 147zM1218 627q77 -40 154 -57v147q-77 35 -154 94v-184zM1392 563q74 -18 168 -22l-13 138q-70 0 -155 31v-147zM1571 679l13 -140h29q57 0 129 11l-15 149 q-85 -20 -156 -20zM1753 706l15 -149q88 19 160 72h-2l-26 125q-74 -30 -147 -48zM1922 765l24 -121q51 51 80 112.5t29 89.5v2q-47 -41 -133 -83z" />
<glyph unicode="&#x10ab;" horiz-adv-x="2191" d="M112 -118q0 228 173 228q16 0 36.5 -3t36 -6.5t42.5 -11.5t38.5 -11.5t42.5 -14.5t38 -13q-41 48 -41 110q0 83 65 139t147 56q103 0 172 -27t69 -72q0 -58 -29.5 -100t-79.5 -42q-27 0 -52 25t-41 55t-33.5 55t-31.5 25q-35 0 -68 -46t-33 -88q0 -76 76.5 -142 t194.5 -103t242 -37q391 0 568 276l2 15q0 11 -26 32.5t-57.5 43.5t-57.5 52t-26 56q0 92 94 92q102 0 152 -125q35 89 35 193q0 99 -17 172t-57 133t-92.5 107t-136.5 103q-88 -111 -238 -227.5t-321 -198.5t-293 -82q-250 0 -371.5 98t-121.5 298q99 -72 253 -125.5 t270 -53.5q66 0 112.5 9t97.5 33.5t105 75t118.5 124.5t154.5 191q-91 52 -176 112q-147 -101 -335 -101q-111 0 -220 39.5t-192.5 105t-135.5 158t-52 190.5h24q0 -118 84.5 -226t218 -172t273.5 -64q168 0 311 90q-65 48 -96 79q-115 -72 -215 -72q-181 0 -318 101.5 t-166 263.5h24q124 -335 460 -335q95 0 195 62q-131 127 -142 273q73 -121 197 -236q127 90 230 236h22q-121 -168 -232 -254q51 -47 96 -79q132 102 265 333h27q-114 -222 -268 -352q29 -21 80 -56t74 -52q150 186 384 323t442 137q-77 -47 -283 -262.5t-311 -344.5 q69 -42 132.5 -82t82 -53t45 -25t39 -12.5t45.5 -0.5q87 0 128 26t41 86q0 67 -54 125.5t-128 76.5q36 4 44 4q86 0 141.5 -59t55.5 -147q0 -75 -56.5 -119.5t-138.5 -44.5q-73 0 -156 28q43 -43 76.5 -150.5t33.5 -202.5q0 -107 -40 -212q109 83 182 83q66 0 66 -83 q0 -43 -20 -69t-50 -34t-65 -15.5t-65 -14.5t-50 -30.5t-20 -62.5q0 -58 30 -89.5t72.5 -40.5t85 -15t72.5 -24t30 -57q0 -124 -156 -124q-83 0 -140 95t-57 211q0 21 4 51q-214 -379 -548 -379q-75 0 -163 31.5t-168.5 76.5t-158.5 90t-158 76.5t-143 31.5q-85 0 -85 -57 q0 -18 31.5 -103t31.5 -100q0 -46 -63 -46q-68 0 -115 60t-47 135zM136 846q0 -30 28 -90.5t81 -111.5l25 121q-89 43 -134 83v-2zM263 629q72 -53 160 -72l15 149q-73 18 -147 48zM449 550q72 -11 130 -11h28l13 140q-70 0 -155 20zM631 541q95 4 169 22v147 q-85 -31 -156 -31zM820 570q75 17 153 57v184q-78 -60 -153 -94v-147zM993 638q73 35 155 103l-11 234q-83 -98 -144 -147v-190zM1153 993l11 -239q74 66 140 140l-57 213q-5 -6 -37 -45.5t-57 -68.5zM1264 1126l57 -212q11 11 95 118q-1 1 -152 94zM1295 1168 q66 -45 151 -94l40 50l-68 186q-77 -91 -123 -142zM1433 1328l66 -184q23 29 58 75.5t49 64.5l-55 158q-38 -31 -118 -114zM1562 1453l53 -156q194 240 379 320q-226 0 -432 -164z" />
<glyph unicode="&#x10ac;" horiz-adv-x="2191" d="M110 625q0 74 32 162t77 169t90.5 159.5t77.5 158.5t32 142q0 85 -57 85q-18 0 -102 -31.5t-102 -31.5q-48 0 -48 63t58.5 112.5t136.5 49.5q232 0 232 -173q0 -20 -3.5 -42t-11.5 -50t-13 -44.5t-17.5 -52t-15.5 -45.5q48 41 109 41q83 0 140 -63.5t57 -148.5 q0 -103 -26.5 -172t-71.5 -69q-61 0 -103 29.5t-42 79.5q0 26 25.5 50.5t55.5 39.5t55.5 33.5t25.5 34.5q0 34 -48 67.5t-85 33.5q-76 0 -143 -75.5t-106 -194t-39 -243.5q0 -391 279 -568l15 -2q11 0 33.5 26t45 57.5t52 57.5t53.5 26q94 0 94 -94q0 -106 -127 -152 q93 -35 193 -35q84 0 150 13.5t114 35.5t93.5 63t79 82.5t78.5 108.5q-111 88 -227.5 238t-198.5 321t-82 293q0 250 99.5 371.5t299.5 121.5q-75 -97 -128.5 -251t-53.5 -272q0 -109 145 -293.5t289 -294.5q88 139 114 176q-103 156 -103 335q0 111 40 220t106 192.5 t158.5 135.5t190.5 52v-24q-90 0 -177 -51.5t-149 -133.5t-100.5 -186t-38.5 -205q0 -160 90 -311q30 45 81 96q-74 114 -74 215q0 181 101.5 315.5t266.5 168.5v-24q-338 -124 -338 -460q0 -95 62 -195q131 131 276 142q-121 -73 -239 -197q93 -130 239 -230v-22 q-151 102 -254 232q-23 -23 -81 -96q100 -132 335 -265v-27q-239 128 -353 268q-57 -77 -110 -154q188 -149 325.5 -383.5t137.5 -440.5q-52 80 -275 295t-334 297q-40 -64 -81.5 -126t-53 -78.5t-23.5 -44t-12.5 -41t-0.5 -50.5q0 -87 25.5 -129t83.5 -42q70 0 128.5 54 t73.5 128q4 -30 4 -43q0 -86 -58 -142t-146 -56q-72 0 -118 55.5t-46 139.5t29 154q-41 -44 -150 -76t-203 -32q-110 0 -215 40q85 -112 85 -182q0 -66 -83 -66q-51 0 -77 27.5t-33 67t-13.5 79t-30.5 67t-72 27.5q-59 0 -91 -29.5t-40.5 -72t-14 -85t-23.5 -72t-58 -29.5 q-128 0 -128 156q0 79 95.5 137t216.5 58q20 0 50 -4q-383 212 -383 548zM966 1144q3 -92 24 -169h145q-28 69 -31 156zM966 1196l138 -41q2 66 22 155l-149 16q-11 -55 -11 -130zM982 1352l149 -15q26 88 50 147l-125 26v2q-47 -59 -74 -160zM995 955q21 -72 57 -153h186 q-74 93 -94 153h-149zM1063 782q33 -63 103 -155l234 11q-62 51 -147 144h-190zM1072 1530l118 -25q43 89 83 134q-32 0 -98 -32t-103 -77zM1181 611q42 -48 138 -140l215 57q-93 73 -114 94zM1339 454q7 -6 120 -95l92 152zM1499 329l52 -40l185 68q-23 20 -55.5 48.5 t-52.5 45.5t-35 29q-87 -140 -94 -151zM1571 276q84 -61 140 -107l158 55q-34 43 -116 118zM1725 160q245 -195 320 -377q0 230 -167 430z" />
<glyph unicode="&#x10ad;" horiz-adv-x="2191" d="M110 -305q0 207 137 442.5t325 381.5q-45 65 -110 154q-115 -141 -352 -268v27q235 133 335 265q-58 73 -81 96q-103 -130 -254 -232v22q144 99 238 230q-119 125 -238 197q145 -11 276 -142q61 99 61 195q0 336 -337 460v24q163 -35 265.5 -168.5t102.5 -315.5 q0 -100 -75 -215q51 -51 81 -96q90 151 90 311q0 136 -63.5 269.5t-172 220t-228.5 86.5v24q98 0 190.5 -52t158.5 -135.5t106 -192.5t40 -220q0 -179 -103 -335q26 -37 114 -176q144 110 289 294.5t145 293.5q0 114 -54 265.5t-128 257.5q200 0 299.5 -121.5t99.5 -371.5 q0 -123 -83 -293.5t-198.5 -318.5t-227.5 -240q58 -86 105 -139t107 -92.5t131.5 -55.5t169.5 -16q102 0 195 35q-127 46 -127 152q0 41 26 67.5t66 26.5q24 0 53.5 -26t52 -57.5t45 -57.5t33.5 -26l15 2q281 178 281 568q0 121 -37 239t-104 196t-144 78q-44 0 -90 -31.5 t-46 -69.5q0 -16 25.5 -34.5t55.5 -33.5t55.5 -39.5t25.5 -50.5q0 -50 -42 -79.5t-100 -29.5q-45 0 -73 67t-28 174q0 85 57.5 148.5t137.5 63.5q64 0 112 -41q-2 6 -19.5 55.5t-22.5 67.5t-12.5 52t-7.5 59q0 173 231 173q75 0 136 -47t61 -115q0 -63 -46 -63 q-18 0 -102 31.5t-102 31.5q-59 0 -59 -85q0 -95 32 -195.5t77.5 -182.5t90.5 -156.5t77 -142t32 -114.5q0 -335 -384 -548q30 4 51 4q117 0 214 -58.5t97 -136.5q0 -156 -125 -156q-33 0 -51.5 21.5t-24 53.5t-13.5 69t-18 69t-41 53.5t-80 21.5q-40 0 -64.5 -27.5 t-35.5 -67t-22.5 -79t-36.5 -67t-67 -27.5q-85 0 -85 66q0 70 85 182q-105 -40 -212 -40q-96 0 -205 32t-150 76q28 -67 28 -154q0 -82 -44.5 -138.5t-117.5 -56.5q-88 0 -147 56t-59 142q0 39 2 43q19 -74 76 -128t126 -54q112 0 112 154v9q0 40 -0.5 54t-12.5 42t-24 44.5 t-52.5 79t-81.5 128.5q-107 -92 -209.5 -184t-236.5 -223.5t-163 -184.5zM147 -217q75 182 320 377l-154 53q-166 -199 -166 -430zM322 224l158 -55q3 3 19 14.5t50 37.5t71 55l-182 66q-82 -75 -116 -118zM456 357l236 -28q-7 11 -94 151q-14 -11 -34.5 -29t-51.5 -45.5 t-56 -48.5zM640 511q6 -10 22 -36.5t33.5 -56t36.5 -59.5q113 89 120 95zM657 528l213 -57q88 74 140 140l-239 11q-21 -21 -114 -94zM791 638l235 -11q70 92 103 155h-191q-57 -67 -147 -144zM916 1639q47 -47 85 -134l119 25q-42 45 -105.5 77t-94.5 32h-4zM953 802h187 q32 74 56 153h-149q-28 -69 -94 -153zM1010 1484q28 -69 51 -147l149 15q-28 99 -73 160zM1056 975h145q21 77 24 169l-138 -13q-3 -87 -31 -156zM1065 1310q20 -89 22 -155l138 13v28q0 75 -11 130z" />
<glyph unicode="&#x10ae;" horiz-adv-x="2191" d="M110 -118q0 63 46 63q28 0 103 -30q69 -33 100 -33q60 0 60 85q0 44 -82 178q-120 205 -146 269q-81 171 -81 342q0 336 383 548q-37 -5 -50 -5q-103 0 -202 51q-110 57 -110 147q0 155 125 155q62 0 75 -72q15 -62 26 -142q30 -75 127 -75q29 0 44 2q34 3 48 75 q20 115 29 125q30 68 105 68q85 0 85 -66q0 -70 -85 -182q102 39 213 39q93 0 188 -26q118 -31 167 -83q-29 73 -29 155t43.5 138.5t118.5 56.5q88 0 147 -55.5t59 -141.5q0 -40 -2 -44q-19 74 -76 128t-126 54q-111 0 -111 -153q0 -68 19 -162q52 -38 152 -198 q196 151 333 272q177 157 276 322q0 -280 -145 -499q-107 -161 -318 -327q6 -8 43.5 -60.5t66.5 -92.5q113 138 353 267v-26q-235 -133 -335 -265q62 -78 81 -97q105 133 254 233v-22q-146 -100 -239 -230q120 -126 239 -198q-143 10 -276 143q-62 -100 -62 -195 q0 -334 338 -458v-24q-170 33 -272 171q-96 135 -96 311q0 100 74 214q-49 49 -81 97q-90 -151 -90 -311q0 -194 130 -379q142 -195 335 -195v-24q-213 0 -360 199q-135 181 -135 399q0 179 103 335q-33 46 -114 175q-224 -175 -301 -258q-133 -152 -133 -329 q0 -122 52 -269q55 -150 130 -252h-7q-392 0 -392 490q0 275 153 493q111 165 355 360q-94 139 -155 193q-56 50 -171 83q-95 26 -187 26q-102 0 -195 -35q127 -46 127 -151q0 -41 -26 -67.5t-66 -26.5q-57 0 -107 83t-77 83l-15 -2q-281 -178 -281 -567q0 -156 66 -314 q82 -199 219 -199q44 0 90 31.5t46 69.5q0 33 -81 65q-81 35 -81 92q0 50 43 80t100 30q54 0 83 -94q17 -77 17 -147q0 -78 -57 -149q-56 -64 -138 -64q-61 0 -111 42q8 -21 20.5 -60.5t18.5 -55.5q22 -54 22 -116q0 -173 -230 -173q-67 0 -132 43q-65 49 -65 119zM966 184 q0 -74 11 -129l149 15q-20 89 -22 156l-138 -13v-29zM966 237l138 13q3 86 31 155h-145q-21 -77 -24 -168zM982 28q27 -96 72 -157v2l127 26q-19 45 -50 145zM995 425h149q29 71 94 154h-186q-35 -79 -57 -154zM1063 598h190q74 84 147 145l-234 11q-69 -90 -103 -156z M1072 -147q35 -41 89 -70q75 -39 110 -39h4q-48 48 -85 133zM1181 769l239 -11q21 21 114 94l-213 57q-88 -74 -140 -140zM1339 927l212 -57q-36 63 -92 151q-15 -11 -39.5 -30t-44.5 -34t-36 -30zM1499 1052q7 -11 94 -151q12 10 143 122l-185 68zM1571 1104l182 -65 q82 75 116 118l-158 55q-3 -3 -19 -15t-50 -38t-71 -55zM1725 1221l153 -53q164 200 164 423v9h3q-80 -185 -320 -379z" />
<glyph unicode="&#x10af;" horiz-adv-x="2191" d="M110 -140q337 124 337 458q0 96 -61 195q-133 -133 -276 -143q116 70 238 198q-94 131 -238 230v22q149 -100 254 -233q19 19 81 97q-100 132 -335 265v26q238 -128 352 -267q65 86 110 153q-211 166 -318 327q-144 218 -144 499q99 -165 276 -322q137 -121 333 -272 q100 161 149 198q22 81 22 162q0 153 -110 153q-70 0 -128 -54t-73 -128q-5 38 -5 44q0 86 58 141.5t146 55.5q75 0 119.5 -56.5t44.5 -138.5q0 -85 -28 -155q50 53 166 83q95 26 187 26q112 0 214 -39q-85 112 -85 182q0 66 83 66q78 0 108 -68q8 -10 28 -125 q14 -72 46 -75q15 -2 44 -2q97 0 127 75q6 28 26 142q13 72 75 72q127 0 127 -155q0 -90 -110 -147q-99 -51 -201 -51q-13 0 -51 5q384 -213 384 -548q0 -171 -81 -342q-24 -59 -147 -269q-81 -133 -81 -178q0 -85 57 -85q28 -3 103 33q75 30 101 30q48 0 48 -63 q0 -68 -60 -115t-135 -47q-233 0 -233 173q0 62 22 116q5 14 18 54.5t22 61.5q-50 -42 -110 -42q-83 0 -140 63.5t-57 149.5q0 62 18 144q27 97 81 97q60 0 102 -29.5t42 -80.5q0 -57 -81 -92q-81 -32 -81 -65q0 -38 46 -71q50 -30 88 -30q136 0 221 199q66 155 66 314 q0 391 -278 567l-16 2q-29 0 -79 -83t-105 -83q-94 0 -94 94q0 105 127 151q-93 35 -193 35q-103 0 -188 -28q-112 -30 -169 -81q-66 -60 -158 -193q227 -182 355 -360q154 -220 154 -493q0 -490 -395 -490h-4q75 102 127 252q55 140 55 269q0 176 -134 329q-79 86 -300 258 q-81 -129 -114 -175q103 -156 103 -335q0 -216 -136 -399q-147 -199 -359 -199v24q193 0 335 195q129 184 129 379q0 160 -90 311q-32 -48 -81 -97q75 -115 75 -214q0 -175 -97 -311q-102 -138 -271 -171v24zM147 1600q0 -233 166 -432l154 53q-240 194 -320 379zM322 1157 q34 -43 116 -118l182 65q-25 19 -140 108zM456 1023l142 -122q87 140 94 151l-52 39zM640 870l212 57q-16 15 -36 30t-44.5 34t-39.5 30zM657 852q93 -73 114 -94l239 11q-42 48 -138 140zM791 743q87 -74 147 -145h191q-34 66 -103 156zM918 -256q37 0 112 39q56 30 90 70 l-119 24q-42 -86 -83 -133zM953 579q65 -83 94 -154h149q-25 82 -56 154h-187zM1010 -101l125 -26v-2q48 61 75 157l-149 16q-28 -90 -51 -145zM1056 405q28 -69 31 -155l138 -13q-3 91 -24 168h-145zM1065 70l149 -15q11 55 11 129v29l-138 13q-2 -67 -22 -156z" />
<glyph unicode="&#x10b0;" horiz-adv-x="3289" d="M105 717q0 169 37 260q43 90 147 90q143 0 143 -342v-48l-29 2q0 154 -15 204q-27 114 -105 114q-83 0 -103 -109q-7 -35 -7 -171q0 -564 771 -564q-17 59 -111 123q-147 99 -160 112q-84 70 -84 149q0 83 22 145q-22 73 -22 245q0 351 301 351q265 0 265 -281h-20 q0 101 -68 156q-64 50 -153 50q-132 0 -189 -65t-57 -211q0 -66 5 -136q62 65 136 68h6q200 0 200 -180q0 -173 -206 -173q-88 0 -141 59v-28q0 -72 180 -184q191 -122 213 -200q125 0 300 92q215 114 215 261v140q-44 0 -101 -37t-110 -37q-65 0 -102.5 47.5t-37.5 125.5 q0 75 38 128.5t102 53.5q49 0 103 -35q58 -33 108 -33q0 101 -31 138q-1 1 -18 12t-21 14.5t-17 16.5t-17.5 24.5t-9.5 30.5t-5 42q0 141 187 141q86 0 137 -37t51 -106q0 -27 -4.5 -47.5t-17.5 -36.5t-18.5 -22t-26.5 -19l-21 -13q-30 -36 -30 -138q50 0 109 33 q54 35 101 35q64 0 102 -53.5t38 -128.5q0 -78 -37.5 -125.5t-102.5 -47.5q-53 0 -110 37t-100 37v-140q0 -149 217 -261q175 -92 300 -92q22 79 212 200q180 115 180 184q0 29 -2 31q-49 -62 -140 -62q-206 0 -206 173q0 180 199 180h7q73 -3 135 -68q7 74 7 136 q0 146 -57 211t-188 65q-90 0 -154 -50q-70 -56 -70 -156h-20q0 281 266 281q300 0 300 -351q0 -136 -24 -245q24 -88 24 -145q0 -79 -84 -149q-15 -15 -159 -112q-95 -65 -112 -123q771 0 771 564q0 135 -4 171q-20 109 -103 109q-81 0 -108 -114q-15 -50 -15 -204l-28 -2 v48q0 342 142 342q106 0 149 -90q35 -70 35 -260q0 -309 -171 -496q-213 -230 -670 -230q-256 0 -461 147q-206 148 -236 366q-16 -216 -237 -368q-208 -145 -465 -145q-450 0 -668 230q-171 187 -171 496zM714 690q18 -59 36 -77.5t59 -18.5q114 0 114 85q0 69 -33 88 q-14 9 -81 9q-65 0 -95 -86zM2367 679q0 -85 114 -85q41 0 60 19t34 77q-30 86 -94 86q-67 0 -81 -9q-33 -19 -33 -88z" />
<glyph unicode="&#x10b1;" horiz-adv-x="3289" d="M105 563q0 369 237 557q222 169 602 169q257 0 465 -145q223 -156 239 -368q30 231 250 379q200 134 445 134q388 0 602 -169q239 -184 239 -557q0 -161 -22 -226q-39 -124 -162 -124q-142 0 -142 363v49l28 -3q0 -172 15 -225q30 -114 108 -114q83 0 103 109q4 36 4 171 q0 280 -188 410.5t-583 130.5q10 -31 112 -100q27 -18 138 -112q83 -69 83 -149q0 -57 -24 -145q24 -109 24 -245q0 -351 -300 -351q-266 0 -266 281h20q0 -96 62 -151t162 -55q131 0 188 65t57 211q0 73 -6 136q-62 -68 -136 -68h-7q-199 0 -199 179q0 174 206 174 q91 0 140 -62q2 2 2 31q0 69 -180 184q-61 38 -109 74q-68 55 -81 103q-166 0 -327 -83q-190 -99 -190 -247v-141q33 0 100 38q65 37 110 37q65 0 102.5 -47t37.5 -126q0 -76 -39 -129t-101 -53q-35 0 -101 33q-61 35 -109 35q0 -102 30 -138q49 -39 51 -42q22 -29 22 -96 q0 -143 -180 -143t-180 140q0 60 31 97q9 9 57 44q31 37 31 138q-49 0 -110 -35q-63 -33 -101 -33q-62 0 -101 53t-39 129q0 79 37.5 126t102.5 47q45 0 110 -37q66 -38 101 -38v141q0 146 -215 260q-137 70 -300 70q-19 -69 -191 -177q-180 -115 -180 -184v-29 q54 60 141 60q206 0 206 -174q0 -179 -200 -179h-6q-74 0 -136 68q-5 -93 -5 -136q0 -147 57.5 -211.5t188.5 -64.5q96 0 158.5 54.5t62.5 151.5h20q0 -281 -265 -281q-301 0 -301 351q0 172 22 245q-22 62 -22 145q0 79 84 149q7 7 160 112q72 50 89 100 q-395 0 -583 -130.5t-188 -410.5q0 -129 7 -171q23 -109 103 -109q75 0 105 114q15 53 15 225l29 3v-49q0 -363 -143 -363q-121 0 -160 124q-24 80 -24 226zM758 589q30 -85 73 -85q67 0 81 9q32 19 32 87q0 86 -113 86q-23 0 -38 -14.5t-20.5 -30.5t-12.5 -43q-1 -6 -2 -9z M2345 600q0 -68 33 -87q14 -9 81 -9q42 0 72 85q-18 73 -24 82q-5 15 -48 15q-114 0 -114 -86z" />
<glyph unicode="&#x10b2;" horiz-adv-x="1839" d="M123 1260q0 70 83 70q45 0 81 -9q114 -22 232 -160q110 -135 121 -252l191 -65q10 37 10 65q0 71 -72 154q-112 126 -127 153q-59 97 -59 213q0 20 2 35q10 107 55 160q68 74 261 85q156 -23 199 -37q91 -34 94 -110q-193 -75 -193 -214q0 -71 60 -145q0 -71 -68 -177 q-66 -105 -66 -169v-7l206 5q50 251 101 317q69 88 311 158q78 -14 92 -28q19 -19 35 -92q-3 -42 -156 -121q-146 -74 -146 -109q0 -26 100 -75q95 -49 95 -74v-20q0 -84 -29 -110q-27 -27 -182 -83q-66 3 -124 6t-81.5 4t-24.5 1q-68 17 -190 127q11 -171 243 -552l112 175 q38 59 96 92q42 22 140 57h18q69 0 101.5 -19t58.5 -79q-13 -108 -108 -108q-15 0 -41 7q-8 0 -22 1t-22 1q-92 0 -140 -35q-22 -49 -136 -182q175 -264 265 -267h11q92 0 223 54l29 -43q-14 -9 -51 -32t-57 -36q-31 -14 -140 -24h-15q-158 0 -331 271q-117 -130 -243 -225 l195 304q-72 127 -156 311q-74 169 -83 178l-66 -158q-77 -169 -155 -302l195 -340l-241 265q-125 -188 -222 -188q-13 1 -40 2t-41 2q-54 3 -85 20v70l131 -24h2q95 0 209 166l-165 182q-37 17 -79 20q-18 1 -53.5 2t-53.5 2q-60 43 -70 121q51 91 144 94q153 -19 206 -109 l128 -222q76 140 138 311q54 153 54 233l-199 -3q-1 -2 -14.5 -31.5t-20.5 -44.5q-30 -63 -81 -66h-20q-83 0 -153 53q-78 57 -81 146v7q0 53 48 72q49 22 52 79q-3 44 -109 127q-108 86 -114 154q0 3 -1 7t-1 8z" />
<glyph unicode="&#x10b8;" horiz-adv-x="1193" d="M55 1245q0 132 84.5 218t215.5 86q177 0 243 -127q32 71 100.5 99t191.5 28q102 0 176 -104.5t74 -234.5v-912q0 -130 -78 -214t-194 -84q-147 0 -236 78t-89 220q0 296 294 296q99 0 191 -26v620q0 107 -44.5 178.5t-126.5 71.5q-111 0 -157.5 -58.5t-46.5 -202.5 l15 -154q0 -33 -21.5 -65.5t-46.5 -32.5q-29 0 -51.5 30t-22.5 68q0 16 8.5 78.5t8.5 73.5q0 148 -42.5 205.5t-145.5 57.5q-188 0 -188 -185q0 -34 -19 -72.5t-34 -38.5q-18 0 -38.5 38t-20.5 65zM653 298q0 -188 213 -188q63 0 112.5 44.5t49.5 104.5v199q-90 28 -171 28 q-204 0 -204 -188z" />
<glyph unicode="&#x10bc;" horiz-adv-x="1085" d="M0 1262q0 123 85.5 205t212.5 82q177 0 245 -147q62 147 272 147q116 0 194 -81.5t78 -200.5q0 -123 -45 -200t-126 -77q-66 0 -66 106q0 14 12 24t47 26q62 38 62 149q0 83 -38 113t-153 30q-186 0 -186 -252q31 -37 31 -119q0 -109 -82 -109q-37 0 -60 32t-23 77 q0 84 26 119q0 252 -188 252q-86 0 -137 -56t-51 -144q0 -273 59 -684l9 -63l59 11q21 4 205 39t343 62q-130 -580 -213 -879q-83 -323 -213 -725h-6q-75 0 -92 109q-64 415 -77 530l-147 1079q-37 235 -37 545zM193 388q38 -194 85 -636l31 -306q27 -245 31 -270l295 1310 q-8 0 -149.5 -31t-174.5 -41q-13 -3 -41 -10.5t-45 -11t-32 -4.5z" />
<glyph unicode="&#x10d0;" horiz-adv-x="821" d="M112 245q0 130 92 130q46 0 46 -46l-26 -90q0 -52 55.5 -90.5t125.5 -38.5q193 0 193 164q0 74 -127 195q-129 123 -129 175q0 37 26.5 79t54.5 42q0 -31 10.5 -61.5t24 -53.5t39 -51t43.5 -44t49.5 -43.5t45.5 -40.5q72 -72 75 -193q0 -121 -86.5 -199.5t-213.5 -78.5 q-118 0 -208 72.5t-90 172.5z" />
<glyph unicode="&#x10d1;" horiz-adv-x="821" d="M112 1442q0 48 31.5 77.5t80.5 29.5q78 0 78 -85q-9 2 -19 2q-59 0 -59 -42q0 -32 5 -51.5t26.5 -42.5t40 -37t73 -52.5t98.5 -72.5q85 -69 85 -167q0 -39 -26 -127q-5 -16 -15.5 -49t-15.5 -51q-10 -35 -37 -182q107 -18 179.5 -100.5t72.5 -193.5q0 -125 -88 -211.5 t-212 -86.5q-122 0 -209 86.5t-87 211.5q0 110 72.5 194t179.5 102q5 31 12 75t11.5 70.5t9.5 42.5q6 23 15 61t13 53q16 48 16 94q0 23 -2.5 39.5t-13 34.5t-18.5 29t-33.5 32.5t-43 34.5t-61 45.5t-74.5 56.5q-85 69 -85 180zM224 298q0 -80 55 -135.5t131 -55.5 q79 0 133.5 55.5t54.5 135.5q0 78 -55 135.5t-133 57.5q-75 0 -130.5 -57.5t-55.5 -135.5z" />
<glyph unicode="&#x10d2;" horiz-adv-x="1193" d="M55 -410q0 223 206 357q209 133 392 130q2 46 11 186q4 62 4 66q0 173 -155 173q-49 0 -98 -37t-49 -79q3 -34 42 -57q41 -19 41 -55q-15 -41 -24 -49q-11 -10 -35 -15q-43 -12 -88.5 42t-45.5 136q0 88 75.5 155.5t181.5 67.5q125 0 195 -63t70 -184q0 -113 -13 -294 q106 6 239 -127q136 -136 136 -353t-180 -403q-182 -188 -342 -188q-153 0 -359 164q-204 165 -204 427zM167 -410q0 -194 173 -337q172 -147 276 -147q103 0 258 158q154 154 154 333q0 133 -86 258q-84 123 -274 123q-150 0 -326 -103q-175 -103 -175 -285z" />
<glyph unicode="&#x10d3;" horiz-adv-x="1259" d="M112 254q0 325 271 325q131 0 242 -77q53 57 106 75.5t137 18.5q128 0 204 -81t76 -217q0 -127 -80 -212.5t-205 -85.5q-129 0 -220 80t-91 218q0 34 11 112q-73 59 -180 59q-159 0 -159 -202q0 -217 159 -383q134 -137 202 -180q12 -9 61.5 -44t87.5 -63 q72 -58 158 -202q103 -167 103 -339q0 -57 -22 -57q-70 0 -83 78q-32 138 -49 198q-55 138 -208 252q-89 86 -243 140q-126 49 -278 55q0 54 90 54q94 0 210 -41q-130 67 -217 230q-83 152 -83 289zM662 298q0 -188 206 -188q73 0 122 53t49 135q0 83 -47 135.5t-124 52.5 q-206 0 -206 -188z" />
<glyph unicode="&#x10d4;" horiz-adv-x="897" d="M112 -657q0 294 197 416q31 20 64 20q43 0 43 -33t-41 -62q-151 -102 -151 -317q0 -112 57 -185.5t149 -73.5q247 0 247 324v798q0 256 -201 256q-81 0 -139.5 -53t-58.5 -135q0 -70 24 -102.5t86 -68.5q22 -16 22 -42q0 -85 -79 -85q-60 0 -112 91.5t-52 193.5 q0 138 97 224.5t247 86.5q148 0 212 -99t64 -341v-770q0 -175 -94 -281t-253 -106q-141 0 -234.5 97.5t-93.5 246.5z" />
<glyph unicode="&#x10d5;" horiz-adv-x="868" d="M112 -644q0 55 22 120t60 111.5t76 46.5q41 -13 41 -44l-15 -27q-64 -133 -71 -199q-1 -5 -1 -10q0 -135 48.5 -190.5t163.5 -55.5q108 0 159 81t51 268v170q0 305 -120 305q-10 0 -68 -35t-61 -35q-49 0 -49 50q0 11 6.5 20t25 21t38.5 23.5t61.5 35t79.5 47.5 q87 78 87 248q0 79 -53.5 129t-136.5 50q-84 0 -146 -45.5t-62 -113.5q0 -22 28.5 -52t57 -53t28.5 -27q0 -85 -77 -85q-58 0 -103.5 56t-45.5 154q0 116 96 196t224 80q52 0 104.5 -19.5t97 -55t72.5 -91.5t28 -123q0 -181 -120 -307q120 -101 120 -270v-335 q0 -396 -346 -396q-136 0 -218 99t-82 258z" />
<glyph unicode="&#x10d6;" horiz-adv-x="866" d="M-55 1205q0 113 97 230q95 114 278 114q195 0 287 -84t92 -247q-11 -176 -99 -324q-88 -153 -190 -300q7 2 35 2q81 0 147 -39l129 157l61 -85l-118 -129q79 -94 79 -202q0 -124 -88.5 -211t-209.5 -87q-124 0 -212 86.5t-88 211.5q0 90 52 169q35 55 148 213.5 t159 237.5q-95 -52 -153 -52q-150 0 -279 76q-127 75 -127 263zM55 1196q0 -137 92 -179q91 -42 204 -42q110 0 192 40q40 71 46 206q0 116 -60.5 168.5t-208.5 52.5q-126 0 -195 -79q-70 -76 -70 -167zM256 298q0 -80 55 -135.5t134 -55.5q76 0 131 55.5t55 135.5 q0 78 -55.5 135.5t-130.5 57.5q-78 0 -133.5 -57.5t-55.5 -135.5z" />
<glyph unicode="&#x10d7;" horiz-adv-x="1306" d="M112 307q0 126 85.5 207.5t212.5 81.5q150 0 230 -105q96 105 261 105q114 0 203.5 -90t89.5 -208v-2q0 -125 -59 -210.5t-160 -85.5q-90 0 -90 64q0 52 62 52q7 0 23 -4.5t23 -4.5q28 0 50 33t32 75.5t10 80.5q0 76 -56.5 133t-127.5 57q-114 0 -176 -87 q-15 -20 -15 -33q0 -366 -300 -366q-130 0 -214 87.5t-84 219.5zM224 300q0 -87 49.5 -138.5t136.5 -51.5q84 0 136 60t52 148q0 76 -57 122t-131 46q-78 0 -132 -53t-54 -133z" />
<glyph unicode="&#x10d8;" horiz-adv-x="821" d="M112 283q0 140 82 226.5t216 86.5q131 0 215.5 -83.5t84.5 -214.5q0 -114 -44 -206t-112 -92q-63 0 -63 48q0 41 15 51q54 41 73 84.5t19 114.5q0 88 -47 138t-141 50q-186 0 -186 -212q0 -114 63 -147q47 -26 55.5 -36.5t8.5 -40.5v-2q0 -48 -75 -48q-43 0 -82 46.5 t-60.5 111.5t-21.5 125z" />
<glyph unicode="&#x10d9;" horiz-adv-x="825" d="M33 -633q0 74 36.5 151.5t98.5 129.5t126 52q39 0 39 -29q0 -31 -18 -49.5t-76 -57.5q-97 -76 -97 -208q0 -119 67 -183.5t188 -64.5q84 0 145 78.5t61 197.5v397q0 153 -119 153q-22 0 -91.5 -30.5t-90.5 -30.5q-74 0 -74 46q0 71 42 81l131 7q106 7 154 71.5t48 201.5 q0 117 -88 152l-44 17q-57 31 -57 114q0 37 44 37q76 0 136.5 -50t90 -120t29.5 -141q0 -211 -111 -289q111 -71 111 -197v-349q0 -455 -326 -455q-355 0 -355 368z" />
<glyph unicode="&#x10da;" horiz-adv-x="1732" d="M112 -232q0 5 22 12t58 12.5t69 5.5q87 0 195 -39l-40 33q-144 126 -203 208q-101 134 -101 270q0 326 293 326q150 0 233 -145q72 169 223 169h7q148 0 217 -158q63 134 267 134q121 0 195.5 -83t74.5 -215q0 -79 -20.5 -158.5t-54.5 -131.5t-70 -52q-94 0 -94 77v4v9 q0 24 9.5 35.5t53.5 36.5q64 40 64 147v5q0 124 -32.5 170t-118.5 46q-103 0 -158 -56t-55 -160l22 -121q0 -43 -22 -79.5t-50 -36.5q-84 0 -84 116q0 12 12.5 63t12.5 64q0 232 -178 232q-70 0 -123.5 -74.5t-53.5 -163.5q0 -13 10.5 -62.5t10.5 -62.5q0 -47 -20.5 -79.5 t-51.5 -32.5q-32 0 -57.5 33.5t-25.5 78.5q0 13 12 64t12 63q0 214 -162 214q-186 0 -186 -190q0 -164 210 -390q142 -142 390 -414q213 -240 213 -434q0 -59 -33 -59q-19 0 -36.5 17.5t-33.5 51.5t-29.5 67.5t-31.5 83t-32 80.5q-44 64 -116 162q-60 60 -173 164 q-66 60 -265 88q-175 23 -175 33v22z" />
<glyph unicode="&#x10db;" horiz-adv-x="876" d="M112 1214v9q0 137 103.5 231.5t249.5 94.5q108 0 171.5 -45t96 -155.5t32.5 -303.5v-734q0 -132 -85.5 -221.5t-214.5 -89.5q-136 0 -218.5 81.5t-82.5 216.5q0 134 86 216t215 82q101 0 186 -42v491q0 220 -41 304.5t-145 92.5q-113 -5 -177 -65.5t-64 -169.5 q0 -57 15 -92q59 0 84 -20t25 -65q0 -79 -94 -79q-142 0 -142 263zM276 298q0 -186 186 -186q94 -2 141.5 60t47.5 187v88q-84 41 -189 44q-186 -3 -186 -193z" />
<glyph unicode="&#x10dc;" horiz-adv-x="821" d="M112 309v795q0 187 107 327q112 118 412 118q79 0 121.5 -35t14.5 -76q-27 -40 -136 -20q-80 24 -182 24q-81 0 -153 -86q-72 -82 -72 -260v-546q120 46 186 46q137 0 218.5 -81t81.5 -217q0 -125 -86.5 -211.5t-213.5 -86.5q-136 0 -217 85.5t-81 223.5zM224 298 q0 -87 49.5 -138.5t136.5 -52.5q87 1 137.5 53t50.5 138q0 190 -188 193q-91 -3 -186 -48v-145z" />
<glyph unicode="&#x10dd;" horiz-adv-x="1306" d="M112 298q0 139 75.5 218.5t211.5 79.5q84 0 154 -27.5t100 -82.5q70 110 243 110q123 0 211.5 -87t88.5 -211h154v-99h-156q0 -24 -37 -71.5t-89 -87.5t-88 -40q-84 0 -84 46q0 45 15 62.5t60 25.5q65 8 89.5 44t24.5 120q0 78 -55.5 133t-133.5 55q-186 0 -186 -133 q0 -9 9 -59t9 -62q0 -94 -75 -94q-72 0 -72 94q0 9 8.5 49.5t8.5 71.5q0 60 -51 96.5t-148 36.5q-84 0 -129.5 -50.5t-45.5 -137.5q0 -79 28 -116t103 -55q38 -13 46.5 -27t8.5 -56q0 -44 -86 -44q-56 0 -105.5 45t-78 113.5t-28.5 139.5z" />
<glyph unicode="&#x10de;" horiz-adv-x="821" d="M112 248q0 192 101 192q78 0 78 -63q0 -14 -33.5 -79t-33.5 -66q0 -122 186 -122q90 0 140 59.5t50 157.5q0 132 -62 213.5t-174 81.5l-140 -8v85q201 0 287.5 53.5t86.5 187.5q0 148 -116 204q-52 12 -212 72q-119 63 -119 219q0 114 55 114q8 0 13.5 -5.5t10.5 -20 t8.5 -29t10.5 -45t14 -55.5q12 -35 47.5 -64.5t72.5 -47t108 -49.5t118 -56q101 -71 101 -208q0 -136 -41 -195t-167 -103q208 -75 208 -344q0 -327 -300 -327q-128 0 -213 70t-85 178z" />
<glyph unicode="&#x10df;" horiz-adv-x="1087" d="M112 121q0 59 52 59q95 0 95 -73l-3 -70q0 -105 154 -105q73 0 119.5 42.5t46.5 113.5q0 102 -122 182l-84 52q-37 23 -37 64q0 14 16 37.5t41 23.5q36 0 66 -46q228 55 372 151q18 39 18 92q-18 43 -18 70q0 55 70 55q77 0 77 -52q0 -39 -17 -79v-1195 q0 -209 -94.5 -326.5t-265.5 -117.5q-182 0 -300 96t-118 248q0 135 74 223.5t204 106.5q68 0 68 -30q0 -36 -40 -48q-86 -14 -141.5 -86t-55.5 -180q0 -100 80 -160.5t229 -60.5q248 0 248 335v877q0 69 -24 107q-2 -1 -47.5 -23t-100.5 -43t-109 -32q121 -96 121 -235 q0 -122 -80 -197t-203 -75q-291 0 -291 299z" />
<glyph unicode="&#x10e0;" horiz-adv-x="1306" d="M112 298q0 164 112 298q194 235 444 473l189 182q42 40 56.5 54.5t35 36.5t26 34.5t5.5 25.5q0 33 -22 33q-121 0 -121 57q0 20 54.5 31.5t208.5 25.5l42 -28q0 -96 -169 -294q-83 -97 -366 -357l-160 -160q-74 -70 -118 -129q45 15 96 15q60 0 130 -33.5t102 -76.5 q71 110 239 110q125 0 211.5 -87t86.5 -211q0 -56 -31 -126t-80 -121t-95 -51q-92 0 -92 61q0 20 5.5 33t19.5 22t27.5 14.5t40.5 16t48 20.5q48 35 48 131q0 188 -189 188q-186 0 -186 -153q0 -11 7.5 -50t7.5 -51q0 -36 -22.5 -79t-45.5 -43q-25 0 -49.5 43.5t-24.5 78.5 q0 12 7.5 49t7.5 48q0 67 -53 112t-135 45q-99 0 -142.5 -43t-43.5 -145q0 -125 94 -160l61 -22q31 -17 31 -55q0 -61 -83 -61t-149 92t-66 206z" />
<glyph unicode="&#x10e1;" horiz-adv-x="821" d="M112 320q114 1062 114 1074q-30 -39 -114 -59v81q1 0 37.5 25t65.5 43.5t66.5 38.5t58.5 24q0 -133 -20 -265q-96 -773 -96 -973q0 -199 186 -199q87 0 137.5 51t50.5 137q0 1 -42.5 81.5t-42.5 106.5q0 71 54.5 114.5t142.5 43.5l-90 -129q0 -21 45 -103.5t45 -113.5 q0 -127 -83.5 -212.5t-216.5 -85.5q-144 0 -221 81.5t-77 238.5z" />
<glyph unicode="&#x10e2;" horiz-adv-x="1286" d="M55 -213q0 102 46 202.5t131.5 177t190.5 98.5q-256 -272 -256 -493q0 -226 146 -432q159 -232 379 -232q182 0 316 252q114 210 114 421q0 227 -132 326q-117 70 -223 119l-9 2q-4 -3 -138 -83q-105 -58 -105 -119q11 -169 123 -188q148 6 164 127q-6 126 -13 138 q109 -27 112 -171q-51 -122 -101 -156q-49 -35 -171 -46q-152 36 -189 121q-38 87 -35 175q4 26 10 47t11 36t18 31t20.5 24.5t28 23.5t30.5 21.5t39.5 24.5t44.5 27q9 5 37 15l-52 24q-187 91 -187 228q0 99 68.5 160t170.5 61q101 0 185.5 -73t84.5 -161q0 -132 -83 -224 q8 -4 24.5 -9t23.5 -8q100 -43 168 -94q185 -141 185 -388q0 -222 -72.5 -403t-203.5 -285.5t-294 -104.5q-262 0 -443 269q-164 242 -164 519zM515 528q0 -56 47 -98t155 -90q13 -6 15 -7q27 23 31 26q48 51 48 125q0 154 -171 154q-125 0 -125 -110z" />
<glyph unicode="&#x10e3;" horiz-adv-x="1306" d="M112 386q0 119 54 211.5t123 92.5q42 0 42 -57l-27 -41q-26 -42 -53.5 -98t-26.5 -84q0 -112 78 -112q31 0 123 149t173 149q88 0 118.5 -19.5t57.5 -87.5q40 66 79 86.5t129 20.5q212 0 212 -289v-824q0 -211 -126.5 -346.5t-324.5 -135.5q-156 0 -276.5 111t-120.5 261 q0 133 81 246q141 186 252 186q42 0 42 -37q0 -29 -26 -42q-88 -50 -163.5 -147.5t-75.5 -170.5q0 -140 89.5 -220t241.5 -80q123 0 210.5 119t87.5 278v793q0 191 -114 191q-156 0 -156 -171l35 -204q0 -83 -76 -83q-79 0 -79 74l37 224q0 100 -23.5 130t-94.5 30 q-43 0 -66 -30t-74 -137q-15 -31 -23 -48q-53 -72 -142 -72q-84 0 -140.5 48.5t-56.5 135.5z" />
<glyph unicode="&#x10e4;" horiz-adv-x="1306" d="M112 298q0 146 76.5 222t221.5 76q153 0 243 -110q87 110 241 110q137 0 218.5 -79.5t81.5 -218.5q0 -186 -201 -272q84 0 142.5 -102t58.5 -242v-195q0 -488 -346 -488q-164 0 -261.5 99t-97.5 262q0 334 317 397q33 -11 33 -37q0 -6 -1 -10.5t-4.5 -9t-7 -8.5 t-11.5 -9.5t-15.5 -9.5t-21.5 -11.5t-26 -14t-32 -17t-38 -20.5q-84 -57 -84 -239q0 -263 248 -263q239 0 239 340v313q0 191 -213 191q-53 0 -114 -18v90q327 80 327 274q0 81 -55.5 134.5t-135.5 53.5q-92 0 -138 -49.5t-46 -138.5q0 -126 -85.5 -212t-214.5 -86 q-120 0 -209 88.5t-89 209.5zM224 300q0 -87 49.5 -138.5t136.5 -51.5q90 0 139 50t49 138q0 188 -188 188q-84 0 -135 -51.5t-51 -134.5z" />
<glyph unicode="&#x10e5;" horiz-adv-x="892" d="M112 -611q0 54 30.5 116.5t72.5 110.5t87.5 80t74.5 32q39 0 39 -28q0 -20 -48 -68q-144 -116 -144 -254v-29q0 -132 53.5 -186.5t184.5 -54.5q211 0 211 342v1012q-141 24 -224 24q-175 0 -175 -109q0 -148 90 -171q101 -27 101 -70q0 -81 -92 -81q-51 0 -101 51 t-80 124t-30 138q0 224 292 224q79 0 219 -16v656q-101 -163 -263 -277q-19 1 -35 21.5t-16 40.5v4q172 139 226 224q88 141 88 304h109v-2141q0 -190 -84 -299.5t-233 -109.5q-353 0 -353 390z" />
<glyph unicode="&#x10e6;" horiz-adv-x="1306" d="M112 -221q0 11 35 11q126 0 298 -55q-155 145 -243 280q-90 143 -90 283q0 136 89 217t231 81q80 0 127.5 -25t93.5 -85q43 61 96.5 85.5t144.5 24.5q300 0 300 -298q0 -109 -40 -203.5t-100 -94.5q-92 0 -92 57q0 28 2 44t11.5 28.5t15 16.5t28 16t35.5 20q31 31 31 116 q0 188 -193 188q-182 0 -182 -131q0 -11 14 -53.5t14 -58.5q0 -38 -24.5 -68t-60.5 -30q-34 0 -58.5 30.5t-24.5 67.5q0 12 14 55t14 59q0 71 -35.5 100t-126.5 29q-84 0 -148 -55.5t-64 -132.5q0 -101 37.5 -180.5t124.5 -185.5q50 -64 256 -237q176 -154 256 -252 q176 -252 176 -392q0 -52 -35 -52q-53 0 -95 118q-57 161 -129 261q-83 107 -160 166q-3 1 -33.5 19.5t-56.5 32.5t-64 33.5t-78.5 35.5t-76.5 26l-116 33q-118 30 -118 55z" />
<glyph unicode="&#x10e7;" horiz-adv-x="983" d="M112 272q0 168 131 324q27 15 51 15q39 0 39 -37q0 -10 -11 -26t-29 -45t-30 -63q-24 -41 -31.5 -77.5t-7.5 -90.5q0 -200 159 -200q145 0 145 134q0 14 -13 82t-13 82q0 98 49.5 162t130.5 64q82 0 135 -62t53 -159v-962q0 -193 -99.5 -303.5t-279.5 -110.5 q-155 0 -247.5 91t-92.5 242v4q0 170 74 286t209 150q18 4 42 4q31 0 40.5 -9.5t9.5 -29.5q0 -29 -50 -59l-75 -44q-60 -50 -99 -121.5t-39 -143.5q0 -261 217 -261q280 0 280 313v901q0 164 -72 164q-83 0 -83 -107q0 -17 14 -87.5t14 -89.5q0 -106 -63.5 -172.5 t-183.5 -66.5q-132 0 -203 78.5t-71 230.5z" />
<glyph unicode="&#x10e8;" horiz-adv-x="901" d="M-57 1245q0 134 64 221q64 86 168 83q110 0 176 -127q33 74 98 101q61 26 114 26q89 3 158 -105q68 -103 68 -234v-912q0 -131 -77 -214.5t-195 -83.5q-145 0 -234.5 78.5t-89.5 219.5q0 296 296 296q98 0 190 -26v620q0 102 -30 177q-30 73 -119 73q-32 0 -81 -44 q-44 -44 -44 -217l16 -154q0 -33 -21.5 -65.5t-46.5 -32.5q-31 0 -53 30t-22 68q0 16 8 78.5t8 73.5q0 165 -33 214q-36 49 -86 49q-122 0 -122 -185q0 -35 -18.5 -73t-34.5 -38q-18 0 -37.5 38t-19.5 65zM302 298q0 -188 213 -188q63 0 113.5 44.5t50.5 104.5v199 q-90 28 -173 28q-204 0 -204 -188z" />
<glyph unicode="&#x10e9;" horiz-adv-x="800" d="M112 736q0 251 53 431.5t163.5 281t271.5 100.5q116 0 185.5 -97.5t69.5 -281.5q0 -74 -42 -164t-107.5 -153.5t-124.5 -63.5q-11 0 -19 8.5t-8 17.5q0 3 2 4.5t6.5 2.5t12 7t17.5 16t25 31.5t32 50.5q96 161 96 215q0 170 -38 233t-137 63q-174 0 -260 -196.5 t-86 -564.5v-120q115 39 199 39q141 0 231.5 -80t90.5 -209q0 -113 -38 -210t-93 -97q-26 0 -49.5 18t-23.5 41q0 68 57 79q35 6 35 164q0 184 -212 184q-95 0 -197 -30q0 -147 46 -327q0 -4 17.5 -29t17.5 -43v-2q-3 -55 -64 -55q-45 0 -59 24l-15 59q-55 237 -55 653z" />
<glyph unicode="&#x10ea;" horiz-adv-x="1306" d="M112 -61q0 94 46 241q58 174 145 277.5t177 103.5q57 0 57 -46q0 -95 -97 -145q-14 -11 -36 -33t-29 -28q-33 -30 -73 -90q-78 -110 -78 -315q0 -262 129 -518q143 -278 375 -278q78 0 162 74t139.5 186t55.5 213q0 134 -61.5 229.5t-153.5 95.5q-44 0 -116.5 -33 t-76.5 -33q-33 0 -56 23.5t-23 55.5q0 81 112 81q375 0 375 241q0 26 -25.5 52t-58.5 44.5t-93.5 51.5t-101.5 60q-96 75 -96 184q0 36 35 68q16 -2 40 -28.5t69 -85t84 -101.5q20 -13 56.5 -36.5t54.5 -35.5t46 -32t42 -33.5t29.5 -31t21.5 -34.5t6 -35q0 -205 -204 -285 q77 -26 140.5 -126t63.5 -190v-4q0 -177 -72 -331q-83 -169 -219 -256q-91 -57 -197 -57q-266 0 -439 324q-155 287 -155 616z" />
<glyph unicode="&#x10eb;" horiz-adv-x="821" d="M112 298q0 298 298 298q132 0 188 -24v309q0 211 -33 313q-55 192 -230 215q-62 10 -65 72q3 68 63 68q229 -79 311 -250q66 -132 66 -403v-598q0 -44 -21.5 -96t-56.5 -97t-85.5 -75t-103.5 -30q-149 0 -240 81.5t-91 216.5zM224 298q0 -85 51 -136.5t135 -51.5 q102 0 145 78t43 270v4q-91 24 -188 24q-84 0 -135 -52t-51 -136z" />
<glyph unicode="&#x10ec;" horiz-adv-x="946" d="M0 1264q0 121 85 203t213 82q133 0 204 -147q62 147 228 147q115 0 192 -82t77 -198q0 -127 -43 -203t-125 -76q-68 0 -68 106q0 4 1 7t2 5.5t4.5 5.5t6 5t8.5 5.5t10 6t12.5 7.5t14.5 8q63 39 63 149q0 82 -38 112.5t-152 30.5q-141 0 -141 -252q27 -36 27 -119 q0 -109 -79 -109q-37 0 -61.5 32t-24.5 77q0 84 29 119q0 252 -147 252q-87 0 -137.5 -54.5t-50.5 -147.5q0 -263 57 -682l11 -63l56 11q30 5 212.5 39.5t338.5 61.5q-113 -506 -213 -879q-83 -323 -213 -725h-6q-75 0 -92 109q-8 49 -79 530l-145 1079q-37 249 -37 547z M195 388q45 -267 81 -636l33 -306q27 -245 31 -270l295 1310q-9 0 -151.5 -30t-172.5 -42q-100 -22 -116 -26z" />
<glyph unicode="&#x10ed;" horiz-adv-x="1118" d="M112 298q0 124 88.5 211t209.5 87q79 0 79 -42v-32q-166 -36 -215.5 -77.5t-49.5 -146.5q0 -79 49.5 -133.5t136.5 -54.5q31 0 87 4q-8 27 -8 68q0 124 54 320q52 212 55 283q0 82 -125 138q-126 58 -234 118q-127 91 -127 248q0 97 33.5 178.5t78.5 81.5q38 0 71.5 -20 t33.5 -48q0 -18 -52.5 -95t-52.5 -97q0 -76 64.5 -141.5t215.5 -128.5q68 -26 107.5 -48t62 -49.5t29.5 -56.5t7 -76q0 -85 -57 -278q-55 -186 -55 -309q0 -30 11 -68q5 1 22 6q139 45 202 169t63 344q-81 71 -81 147q0 31 29.5 52.5t69.5 21.5q50 0 72 -48t22 -175v-18 q0 -485 -351 -598q23 -36 46 -61q8 -10 77 -92t121 -145q107 -134 107 -250q0 -207 -123.5 -347.5t-316.5 -140.5q-117 0 -222.5 52t-169.5 140.5t-64 188.5q0 101 35.5 189t99.5 141t141 53l-70 -76q-55 -55 -74.5 -116.5t-19.5 -170.5q0 -126 99.5 -209t244.5 -83 q148 0 238 109t90 270q0 47 -21 91.5t-48.5 78.5t-100.5 119t-132 160q-33 39 -51 73q-54 -9 -133 -9q-128 0 -213 91t-85 207z" />
<glyph unicode="&#x10ee;" horiz-adv-x="821" d="M112 298q0 165 55 504q57 351 57 497q0 29 -28 62t-56 59t-28 37q0 92 83 92q46 0 92 -61t46 -114q0 -205 -79 -655q-3 -20 -14.5 -97t-15.5 -114q69 88 186 88t166 -55l22 184q0 13 42 13q70 0 70 -13q0 -153 -72 -232q45 -59 58.5 -100.5t13.5 -94.5 q0 -135 -82.5 -216.5t-217.5 -81.5q-131 0 -214.5 83.5t-83.5 214.5zM224 298q0 -188 186 -188q188 0 188 188q0 80 -53 134t-135 54q-85 0 -135.5 -51t-50.5 -137z" />
<glyph unicode="&#x10ef;" horiz-adv-x="1464" d="M112 -859q0 8 9 31q123 -64 221 -64q147 0 147 158q0 17 -3 29.5t-11 23.5t-16 18.5t-25.5 15t-32 12.5t-42 11.5t-50 11.5t-60.5 13.5t-69 15.5q122 122 315 263q12 4 178 129q1 1 3 2.5t3 2.5l-19 342q-3 75 -7 112.5t-7.5 53t-14.5 51.5q-45 113 -155 113 q-187 0 -187 -162q0 -83 34.5 -142t79.5 -59q7 0 45 15t45 15q59 0 59 -103q0 -31 -30.5 -51.5t-72.5 -20.5q-185 0 -254 221q-15 50 -15 99q0 126 82.5 212t204.5 86q145 0 211 -84.5t80 -281.5l18 -344q68 53 85 68q38 26 92.5 67.5t56.5 42.5q4 2 9 6t7 5 q-68 152 -68 295q0 94 56.5 160t155.5 66q79 0 131.5 -62t52.5 -146q0 -129 -98 -224q-15 -14 -54 -49.5t-62 -55.5q3 -10 6 -13q86 -152 208 -241v-88q-65 0 -161.5 -79.5t-96.5 -137.5v-164q0 -182 -41.5 -259.5t-138.5 -77.5q-109 0 -155 50t-51 184l-26 469 q-89 -65 -329 -237q135 -36 189 -76.5t54 -116.5q0 -130 -70.5 -201.5t-200.5 -71.5q-59 0 -137 49.5t-78 92.5zM780 -226l29 -526q5 -91 24.5 -115.5t86.5 -24.5q77 0 77 202v175q0 61 45 131.5t106.5 116.5t107.5 46q-112 72 -193 217q-69 -58 -189 -152q-5 -3 -16 -11.5 t-33.5 -25.5t-44.5 -33zM1056 346q0 -95 44 -208q156 142 156 228q0 71 -20 95.5t-72 24.5q-108 0 -108 -140z" />
<glyph unicode="&#x10f0;" horiz-adv-x="821" d="M112 283q0 96 96 96q57 0 57 -50q-1 -5 -5 -16.5t-6 -16.5q-11 -28 -11 -68q0 -118 167 -118q103 0 145.5 43.5t42.5 144.5q0 113 -188 188q-143 59 -143 108q0 26 44 26q17 0 76.5 -18.5t90.5 -18.5q54 0 87 36t33 95q0 128 -188 200q-140 49 -140 98q0 22 39 22 q16 0 78.5 -17.5t94.5 -17.5q116 0 116 138q0 77 -140 132q-128 47 -160.5 65t-73.5 62q-82 82 -82 134q0 19 14 19q28 0 53.5 -15.5t47 -37.5t70.5 -53t113 -54q140 -56 205 -116.5t65 -154.5q0 -65 -46 -122.5t-101 -57.5h-15q69 -44 100 -73.5t46.5 -73.5t15.5 -118 q0 -60 -49 -115.5t-113 -55.5q162 -80 162 -257q0 -104 -88 -174.5t-212 -70.5q-298 0 -298 283z" />
<glyph unicode="&#x10f4;" horiz-adv-x="950" d="M85 -673q0 168 69.5 270.5t204.5 102.5h24q-188 -125 -188 -342q0 -250 309 -250q105 0 178.5 74t73.5 178v241q0 208 -74 291.5t-235 83.5q-66 0 -120 -11q-31 0 -44 15.5t-13 47.5q0 18 6 30t16 18.5t30.5 10t39.5 5t54.5 5t65.5 8.5q140 15 207 59t67 121 q0 29 -9.5 49.5t-23.5 33.5t-48 26.5t-66 23.5t-94.5 29.5t-117.5 38.5q-127 55 -127 167q0 84 33 146t91 97t126 51.5t148 16.5q88 0 88 -50q0 -53 -16.5 -66t-71.5 -13q-129 0 -208 -50.5t-79 -135.5q0 -65 127 -101q65 -15 113.5 -30t97.5 -36.5t80 -46t50 -58.5t19 -75 q0 -98 -69 -180.5t-133 -82.5h-4q85 -35 145.5 -133.5t60.5 -210.5v-346q0 -145 -111.5 -247.5t-259.5 -102.5q-184 0 -298 85t-114 243z" />
<glyph unicode="&#x2000;" horiz-adv-x="910" />
<glyph unicode="&#x2001;" horiz-adv-x="1821" />
<glyph unicode="&#x2002;" horiz-adv-x="910" />
<glyph unicode="&#x2003;" horiz-adv-x="1821" />
<glyph unicode="&#x2004;" horiz-adv-x="607" />
<glyph unicode="&#x2005;" horiz-adv-x="455" />
<glyph unicode="&#x2006;" horiz-adv-x="303" />
<glyph unicode="&#x2007;" horiz-adv-x="303" />
<glyph unicode="&#x2008;" horiz-adv-x="227" />
<glyph unicode="&#x2009;" horiz-adv-x="364" />
<glyph unicode="&#x200a;" horiz-adv-x="101" />
<glyph unicode="&#x2010;" horiz-adv-x="673" d="M85 401q14 -9 33 -9q14 0 40 5.5t37 5.5q29 0 131.5 -10t124.5 -10q62 0 91.5 27t29.5 85v9l-2 4q-36 -6 -75 -6q-35 0 -144.5 8.5t-124.5 8.5q-60 0 -92 -31t-49 -87z" />
<glyph unicode="&#x2011;" horiz-adv-x="673" d="M85 401q14 -9 33 -9q14 0 40 5.5t37 5.5q29 0 131.5 -10t124.5 -10q62 0 91.5 27t29.5 85v9l-2 4q-36 -6 -75 -6q-35 0 -144.5 8.5t-124.5 8.5q-60 0 -92 -31t-49 -87z" />
<glyph unicode="&#x2012;" horiz-adv-x="673" d="M85 401q14 -9 33 -9q14 0 40 5.5t37 5.5q29 0 131.5 -10t124.5 -10q62 0 91.5 27t29.5 85v9l-2 4q-36 -6 -75 -6q-35 0 -144.5 8.5t-124.5 8.5q-60 0 -92 -31t-49 -87z" />
<glyph unicode="&#x2013;" d="M-7 511h1109v52h-1109v-52z" />
<glyph unicode="&#x2014;" horiz-adv-x="2191" d="M-31 511h2253v52h-2253v-52z" />
<glyph unicode="&#x2018;" horiz-adv-x="622" d="M173 1289q0 -68 40.5 -110t106.5 -42q50 0 81 26t31 69q0 11 -2 18.5t-9.5 15.5t-12.5 12t-22 15.5t-27 19.5h3q-75 39 -75 109q0 13 2 24.5t7 25t8.5 21t12 25.5t12.5 25q-40 -19 -81 -57q-75 -83 -75 -197zM329 1543q52 22 122 33l-30 26l15 24l-17 -7q-51 -23 -90 -76 z" />
<glyph unicode="&#x2019;" horiz-adv-x="622" d="M123 1479q0 -14 2 -24.5t10 -19.5t12.5 -14.5t20 -12t22.5 -9.5t29 -10.5t31 -10.5q28 -10 47 -38t19 -62q0 -41 -20 -84q105 80 105 193q0 85 -48 137t-123 52q-46 0 -76.5 -28t-30.5 -69zM186 1135l38 -20l-7 -22l13 11q45 47 66 90q-56 -40 -110 -59z" />
<glyph unicode="&#x201a;" horiz-adv-x="622" d="M164 118q0 -44 17.5 -59t68.5 -28q61 -17 83 -41t22 -75q0 -44 -20 -84q108 82 108 195q0 84 -47.5 136.5t-121.5 52.5q-49 0 -79.5 -27t-30.5 -70zM228 -228l37 -17l-6 -22l13 11q40 45 63 87q-47 -33 -107 -59z" />
<glyph unicode="&#x201c;" horiz-adv-x="1058" d="M162 1289q0 -67 41.5 -109.5t107.5 -42.5q50 0 80 26t30 69q0 20 -15 36t-36.5 28t-42.5 27.5t-36 43.5t-15 66q0 35 90 156q-22 -11 -71 -47t-67 -54q-66 -68 -66 -199zM576 1289q0 -67 41.5 -109.5t107.5 -42.5q49 0 79.5 26.5t30.5 68.5q0 20 -15 36t-36 28 t-42.5 27.5t-36.5 43.5t-15 66q0 35 88 156q-20 -9 -69.5 -45.5t-68.5 -55.5q-64 -68 -64 -199z" />
<glyph unicode="&#x201d;" horiz-adv-x="1058" d="M114 1479q0 -67 83 -87q58 -15 81.5 -39.5t23.5 -72.5q0 -53 -19 -88q109 78 109 195q0 84 -48 136.5t-123 52.5q-47 0 -77 -27.5t-30 -69.5zM178 1135l37 -20l-7 -22l13 11q51 60 62 88q-45 -36 -105 -57zM568 1479q0 -68 85 -87q57 -13 81 -39.5t24 -72.5 q0 -43 -20 -86q108 82 108 193q0 83 -47 136t-122 53q-48 0 -78.5 -27.5t-30.5 -69.5zM633 1093l35 22l-4 -22l11 11q48 48 63 90q-3 -2 -17 -12.5t-21 -16.5t-19.5 -17.5t-24 -25t-23.5 -29.5z" />
<glyph unicode="&#x201e;" horiz-adv-x="1058" d="M156 118q0 -45 18 -60.5t67 -26.5q61 -16 82 -40t21 -76q0 -18 -27.5 -85t-44.5 -100q53 40 107.5 140t54.5 156q0 84 -47.5 136.5t-123.5 52.5q-48 0 -77.5 -27t-29.5 -70zM609 118q0 -28 19.5 -47t47.5 -30.5t56.5 -24t48 -36t19.5 -57.5q0 -15 -20 -55t-45.5 -84 t-28.5 -51q55 39 118.5 138t63.5 155q0 83 -46.5 136t-122.5 53q-49 0 -79.5 -27t-30.5 -70z" />
<glyph unicode="&#x2020;" d="M105 969q0 -44 18 -77q144 42 300 42l74 -3q-1 -115 -3.5 -269.5t-6 -293t-6.5 -258.5t-5.5 -192.5t-2.5 -68.5q0 -67 12 -90.5t47 -23.5q55 0 121 33q-25 70 -35 164q-15 113 -15 355q0 288 11 640q46 -2 109 -4.5t103.5 -4.5t41.5 -2q74 0 105 17t31 55q0 36 -18 75 q-137 -46 -313 -46h-59q0 55 7.5 237t7.5 184q0 65 -11 86t-55 21q-50 0 -118 -31q49 -127 52 -488q-45 1 -109 2.5t-106.5 2.5t-40.5 1q-72 0 -104 -15t-32 -48z" />
<glyph unicode="&#x2021;" d="M114 337q0 -40 17 -74q142 42 283 42h77q-1 -71 -4 -183.5t-6 -194t-3 -83.5q0 -68 10.5 -88.5t52.5 -20.5q46 0 108 31q-22 60 -33 142q-16 109 -16 302v90q234 -11 241 -11q134 0 134 62q0 29 -17 74q-158 -42 -283 -42h-77q0 157 11 625q21 0 124 -3.5t122 -3.5 q69 0 99 14.5t30 47.5q0 44 -15 74q-135 -41 -283 -41h-77q16 276 16 342q0 64 -10 84.5t-52 20.5q-50 0 -109 -31q42 -116 48 -412q-40 1 -98.5 3.5t-100.5 5t-47 2.5q-69 0 -100 -14t-31 -47q0 -37 17 -77q135 42 283 42h77v-174q0 -132 -9 -451q-34 0 -128 5.5t-120 5.5 q-69 0 -100 -15.5t-31 -48.5z" />
<glyph unicode="&#x2022;" horiz-adv-x="1292" d="M348 817q0 -127 85.5 -212.5t210.5 -85.5q122 0 210 87.5t88 210.5t-86.5 209.5t-209.5 86.5q-126 0 -212 -86t-86 -210z" />
<glyph unicode="&#x2026;" horiz-adv-x="2191" d="M202 92q0 -48 30.5 -76.5t80.5 -28.5q53 0 91.5 33t38.5 79q0 52 -30.5 81.5t-83.5 29.5q-57 0 -92 -32.5t-35 -85.5zM962 92q0 -48 31 -76.5t81 -28.5q54 0 92.5 33t38.5 79q0 52 -30.5 81.5t-83.5 29.5q-58 0 -93.5 -32.5t-35.5 -85.5zM1727 92q0 -48 30.5 -76.5 t78.5 -28.5q56 0 94 33t38 79q0 52 -30.5 81.5t-81.5 29.5q-58 0 -93.5 -32.5t-35.5 -85.5z" />
<glyph unicode="&#x202f;" horiz-adv-x="364" />
<glyph unicode="&#x2039;" horiz-adv-x="450" d="M110 522q0 -66 92 -167q78 -81 111 -81q14 0 14 13q-1 1 -5 9.5t-14.5 27.5t-22.5 40q-51 83 -51 158q0 71 51 157q42 69 42 77q0 13 -14 13q-36 0 -111 -83q-92 -98 -92 -164z" />
<glyph unicode="&#x203a;" horiz-adv-x="450" d="M125 287q0 -13 9 -13q51 0 129.5 98.5t78.5 146.5q0 31 -36 90.5t-86.5 109.5t-85.5 50q-9 0 -9 -13q0 -8 42 -77q50 -84 50 -160q0 -72 -50 -153q-42 -72 -42 -79z" />
<glyph unicode="&#x205f;" horiz-adv-x="455" />
<glyph unicode="&#x25fc;" horiz-adv-x="1060" d="M0 0v1063h1063v-1063h-1063z" />
</font>
</defs>
</svg>
